Donna Summer – The Best Of Donna Summer (1990)

Download
Donna Summer - The Best Of Donna Summer (1990)

Donna Summer – The Best Of Donna Summer (1990)
EAC Rip | FLAC (Img) + Cue + Log ~ 357 Mb | MP3 CBR320 ~ 134 Mb
Scans (PNG, 400 dpi) ~ 50 Mb | RAR 5% Recovery
Disco, R&B, Dance, Pop | Warner Bros. Records #9031-72909-2

Donna Summer’s title as the "Queen of Disco" wasn’t mere hype. Like many of her contemporaries, she was a talented vocalist trained as a powerful gospel belter, but she set herself apart with her songwriting ability, magnetic stage presence, and shrewd choice of studio collaborators, all of which resulted in sustained success. During the ’70s alone, she topped the Billboard club chart 11 times with high-quality, often-high concept material that included the rapturous "Love to Love You Baby," the innovative "I Feel Love," and a radically transformed "MacArthur Park." These crossover hits embodied the disco era with audacious musicality and uninhibited eroticism. After her subgenre was declared dead, Summer was very much part of the evolution of dance music. Through the feminist anthem "She Works Hard for the Money," she became an MTV star, and she continued to top the club chart with disco-rooted house singles through 2010, 35 years after her breakthrough. Indeed, she was the ultimate disco diva.

~ All Music
Donna Summer - The Best Of Donna Summer (1990)

Official Website | Wiki | Discogs | All Music

***************

Donna Summer - The Best Of Donna Summer (1990)

Track List:

01. I Feel Love [0:05:54.25]
02. Mac Arthur Park [0:03:55.72]
03. Hot Stuff [0:03:43.58]
04. The Wanderer [0:03:45.17]
05. Love’s Unkind [0:04:26.25]
06. On The Radio [0:04:03.25]
07. State Of Independence [0:05:50.13]
08. Breakaway [0:04:02.20]
09. Love Is In Control (Finger On The Trigger) [0:04:19.25]
10. Dinner With Gershwin [0:04:38.10]
11. I Don’t Wanna Get Hurt [0:03:27.10]
12. This Time I Know It’s For Real [0:03:35.22]
13. Love’s About To Change My Heart [0:04:01.00]

EAC Log
Exact Audio Copy V1.3 from 2. September 2016

EAC extraction logfile from 6. September 2016, 20:52

Donna Summer / The Best Of

Used drive : HL-DT-STDVDRAM GH24NSC0 Adapter: 1 ID: 0

Read mode : Secure
Utilize accurate stream : Yes
Defeat audio cache : Yes
Make use of C2 pointers : No

Read offset correction : 6
Overread into Lead-In and Lead-Out : No
Fill up missing offset samples with silence : Yes
Delete leading and trailing silent blocks : No
Null samples used in CRC calculations : Yes
Used interface : Native Win32 interface for Win NT & 2000

Used output format : Internal WAV Routines
Sample format : 44.100 Hz; 16 Bit; Stereo

TOC of the extracted CD

Track | Start | Length | Start sector | End sector
––––––––––––––––––––––––––––-
1 | 0:00.00 | 5:54.25 | 0 | 26574
2 | 5:54.25 | 3:55.72 | 26575 | 44271
3 | 9:50.22 | 3:43.58 | 44272 | 61054
4 | 13:34.05 | 3:45.17 | 61055 | 77946
5 | 17:19.22 | 4:26.25 | 77947 | 97921
6 | 21:45.47 | 4:03.25 | 97922 | 116171
7 | 25:48.72 | 5:50.13 | 116172 | 142434
8 | 31:39.10 | 4:02.20 | 142435 | 160604
9 | 35:41.30 | 4:19.25 | 160605 | 180054
10 | 40:00.55 | 4:38.10 | 180055 | 200914
11 | 44:38.65 | 3:27.10 | 200915 | 216449
12 | 48:06.00 | 3:35.22 | 216450 | 232596
13 | 51:41.22 | 4:01.00 | 232597 | 250671

Range status and errors

Selected range

Filename C:Music CDDonna Summer – The Best Of.wav

Peak level 94.6 %
Extraction speed 0.7 X
Range quality 99.7 %
Test CRC 70BD72EF
Copy CRC 70BD72EF
Copy OK

No errors occurred

AccurateRip summary

Track 1 accurately ripped (confidence 53) [D6925188] (AR v2)
Track 2 accurately ripped (confidence 52) [D2E9D433] (AR v2)
Track 3 accurately ripped (confidence 53) [3DAF99BE] (AR v2)
Track 4 accurately ripped (confidence 51) [AE323414] (AR v2)
Track 5 accurately ripped (confidence 51) [189F0961] (AR v2)
Track 6 accurately ripped (confidence 51) [ADBCF5DB] (AR v2)
Track 7 accurately ripped (confidence 52) [8F5EE099] (AR v2)
Track 8 accurately ripped (confidence 51) [BDCA7E7E] (AR v2)
Track 9 accurately ripped (confidence 52) [6180F767] (AR v2)
Track 10 accurately ripped (confidence 52) [D69B2EFD] (AR v2)
Track 11 accurately ripped (confidence 51) [D56ACC9B] (AR v2)
Track 12 accurately ripped (confidence 53) [580BA599] (AR v2)
Track 13 accurately ripped (confidence 50) [392622FE] (AR v2)

All tracks accurately ripped

End of status report

–– CUETools DB Plugin V2.1.6

[CTDB TOCID: Xnu1pZcRbxntxJp4o_VzIFK346g-] found
Submit result: Xnu1pZcRbxntxJp4o_VzIFK346g- has been confirmed
Track | CTDB Status
1 | (97/98) Accurately ripped
2 | (97/98) Accurately ripped
3 | (97/98) Accurately ripped
4 | (96/98) Accurately ripped
5 | (97/98) Accurately ripped
6 | (97/98) Accurately ripped
7 | (96/98) Accurately ripped
8 | (94/98) Accurately ripped
9 | (94/98) Accurately ripped
10 | (95/98) Accurately ripped
11 | (96/98) Accurately ripped
12 | (96/98) Accurately ripped
13 | (95/98) Accurately ripped

==== Log checksum 424912B296F937A5030946DFE6BD13544524031CFD61EC832DDB478B311BA1BE ====

DR Log
foobar2000 1.2.6 / Dynamic Range Meter 1.1.1
log date: 2017-02-04 14:03:19

––––––––––––––––––––––––––––––––––––––––
Analyzed: Donna Summer / The Best Of
––––––––––––––––––––––––––––––––––––––––

DR Peak RMS Duration Track
––––––––––––––––––––––––––––––––––––––––
DR14 -2.52 dB -18.54 dB 5:54 01-I Feel Love
DR12 -3.39 dB -18.16 dB 3:56 02-Mac Arthur Park
DR13 -3.12 dB -17.82 dB 3:44 03-Hot Stuff
DR13 -3.21 dB -18.52 dB 3:45 04-The Wanderer
DR15 -2.30 dB -19.51 dB 4:26 05-Love’s Unkind
DR14 -1.64 dB -18.54 dB 4:03 06-On The Radio
DR15 -1.29 dB -18.75 dB 5:50 07-State Of Independence
DR15 -0.59 dB -19.23 dB 4:02 08-Breakaway
DR15 -2.10 dB -19.47 dB 4:19 09-Love Is In Control (Finger On The Trigger)
DR14 -1.27 dB -17.93 dB 4:38 10-Dinner With Gershwin
DR12 -2.66 dB -16.70 dB 3:27 11-I Don’t Wanna Get Hurt
DR13 -1.73 dB -17.85 dB 3:35 12-This Time I Know It’s For Real
DR12 -0.48 dB -16.27 dB 4:01 13-Love’s About To Change My Heart
––––––––––––––––––––––––––––––––––––––––

Number of tracks: 13
Official DR value: DR14

Samplerate: 44100 Hz
Channels: 2
Bits per sample: 16
Bitrate: 846 kbps
Codec: WavPack
================================================================================

CUETools Log
[CUETools log; Date: 04.02.2017 14:03:32; Version: 2.1.5]
[CTDB TOCID: Xnu1pZcRbxntxJp4o_VzIFK346g-] found.
Track | CTDB Status
1 | (111/112) Accurately ripped
2 | (111/112) Accurately ripped
3 | (111/112) Accurately ripped
4 | (110/112) Accurately ripped
5 | (111/112) Accurately ripped
6 | (111/112) Accurately ripped
7 | (110/112) Accurately ripped
8 | (108/112) Accurately ripped
9 | (108/112) Accurately ripped
10 | (109/112) Accurately ripped
11 | (110/112) Accurately ripped
12 | (110/112) Accurately ripped
13 | (109/112) Accurately ripped
[AccurateRip ID: 001b9538-0111d88f-990d0e0d] found.
Track [ CRC | V2 ] Status
01 [516f7de8|d6925188] (048+059/112) Accurately ripped
02 [7d261ffb|d2e9d433] (049+058/111) Accurately ripped
03 [c881b926|3daf99be] (048+059/111) Accurately ripped
04 [e564269b|ae323414] (048+057/109) Accurately ripped
05 [4f2b7d17|189f0961] (047+057/108) Accurately ripped
06 [ea84e882|adbcf5db] (050+057/111) Accurately ripped
07 [b7ff46f9|8f5ee099] (048+058/110) Accurately ripped
08 [761fa5df|bdca7e7e] (048+057/109) Accurately ripped
09 [cccac435|6180f767] (048+058/110) Accurately ripped
10 [bce89db6|d69b2efd] (047+058/109) Accurately ripped
11 [e3477912|d56acc9b] (048+057/109) Accurately ripped
12 [64025748|580ba599] (048+059/111) Accurately ripped
13 [00d007b7|392622fe] (048+056/108) Accurately ripped
Offsetted by -828:
01 [85c67985] (000/112) No match (V2 was not tested)
02 [bf8eb414] (000/111) No match (V2 was not tested)
03 [0e33679d] (000/111) No match (V2 was not tested)
04 [694eb106] (000/109) No match (V2 was not tested)
05 [ff9562fd] (000/108) No match (V2 was not tested)
06 [5a1246ac] (000/111) No match (V2 was not tested)
07 [0a034104] (000/110) No match (V2 was not tested)
08 [551120d9] (000/109) No match (V2 was not tested)
09 [f70f2d74] (000/110) No match (V2 was not tested)
10 [9bc59b56] (000/109) No match (V2 was not tested)
11 [e47c00a0] (000/109) No match (V2 was not tested)
12 [19246dc6] (000/111) No match (V2 was not tested)
13 [6c92a807] (000/108) No match (V2 was not tested)

Track Peak [ CRC32 ] [W/O NULL] [ LOG ]
– 94,6 [70BD72EF] [87917935] CRC32
01 74,8 [4C5712E2] [6E8B2E46]
02 67,6 [A247B349] [08BF4030]
03 69,8 [6941C27F] [20BCA27A]
04 69,0 [7307CC32] [B410D3D5]
05 76,7 [E8E0E4C2] [89397F8B]
06 82,7 [7BB6067D] [B73B94B8]
07 86,2 [D70317C4] [164C251C]
08 93,4 [406D0ECE] [BDA61CD0]
09 78,5 [BE9FFBF1] [EA836863]
10 86,4 [EE6A1091] [828A6F36]
11 73,6 [37FD21E2] [480D3E7A]
12 81,9 [15598CBB] [93054E8F]
13 94,6 [4FE7E7BC] [64E30202]

Donna Summer - The Best Of Donna Summer (1990)

Donna Summer - The Best Of Donna Summer (1990)

All thanks go to Anna

> Visit my blog <

Donna Summer – The Best Of Donna Summer (1990) Download, Warez, DDL, Free, Full Album, Torrent, Legal.

Download