Donald Byrd & Kenny Burrell – All Night Long (1956) {Prestige}

Download
Donald Byrd & Kenny Burrell - All Night Long (1956) {Prestige}

Donald Byrd & Kenny Burrell – All Night Long (1956) {Prestige}
EAC 1.0b3 | FLAC tracks level 8 | Cue+Log+M3U | Full Scans 100dpi | 194MB + 5% Recovery
MP3 CBR 320 Kbps | 92MB + 5% Recovery
Genre: Bop, Hard Bop
Donald Byrd & Kenny Burrell - All Night Long (1956) {Prestige}

One of the great jam session recordings of the 1950s, All Night Long was under the relaxed direction of Kenny Burrell. The guitarist gathered together some of the finest young players on the New York scene, including Donald Byrd on trumpet and tenor saxophonists Hank Mobley and Jerome Richardson, one of the unsung heroes of the flute in jazz. Mal Waldron, Doug Watkins and Arthur Taylor were the rhythm section. The musical formats were uncomplicated; "All Night Long" a blues with a bridge, Waldron’s "Flickers" a 16-bar pattern, Mobley’s two originals based on familiar 32-bar chord sequences. From these simple, classic bases were launched performances with the hallmarks that have long identified any Burrell project: Relaxation, swing and high standards of musicianship.

Track List
01. All Night Long (Burrell) 17:16
02. Boo-Lu (Mobley) 6:49
03. Flickers (Waldron) 6:15
04. Li’l Hankie (Mobley) 8:28

musicians
Kenny Burrell – guitar
Donald Byrd – trumpet
Hank Mobley – tenor saxophone
Jerome Richardson – flute, tenor saxophone
Mal Waldron – piano
Doug Watkins – bass
Art Taylor – drums

Recorded at Van Gelder Studio Hackensack, NJ on December 28, 1956.

EAC Logfile
Exact Audio Copy V1.0 beta 3 from 29. August 2011

EAC extraction logfile from 22. February 2014, 0:03

Kenny Burrell / All Night Long

Used drive : TSSTcorpDVDWBD SH-B123L Adapter: 4 ID: 0

Read mode : Secure
Utilize accurate stream : Yes
Defeat audio cache : Yes
Make use of C2 pointers : No

Read offset correction : 6
Overread into Lead-In and Lead-Out : No
Fill up missing offset samples with silence : Yes
Delete leading and trailing silent blocks : No
Null samples used in CRC calculations : Yes
Used interface : Native Win32 interface for Win NT & 2000
Gap handling : Appended to previous track

Used output format : User Defined Encoder
Selected bitrate : 1024 kBit/s
Quality : High
Add ID3 tag : No
Command line compressor : C:Program Files (x86)Exact Audio CopyFlacflac.exe
Additional command line options : -8 -V -T "ARTIST=%artist%" -T "TITLE=%title%" -T "ALBUM=%albumtitle%" -T "DATE=%year%" -T "TRACKNUMBER=%tracknr%" -T "GENRE=%genre%" -T "PERFORMER=%albuminterpret%" -T "COMPOSER=%composer%" %haslyrics%–tag-from-file=LYRICS="%lyricsfile%"%haslyrics% -T "ALBUMARTIST=%albumartist%" -T "DISCNUMBER=%cdnumber%" -T "TOTALDISCS=%totalcds%" -T "TOTALTRACKS=%numtracks%" -T "COMMENT=%comment%" %source% -o %dest%

TOC of the extracted CD

Track | Start | Length | Start sector | End sector
––––––––––––––––––––––––––––-
1 | 0:00.00 | 17:15.52 | 0 | 77676
2 | 17:15.52 | 6:48.39 | 77677 | 108315
3 | 24:04.16 | 6:14.54 | 108316 | 136419
4 | 30:18.70 | 8:28.02 | 136420 | 174521

Track 1

Filename E:Kenny Burrell – 1957 – All Night Long1 All Night Long.wav

Pre-gap length 0:00:02.00

Peak level 76.5 %
Extraction speed 2.6 X
Track quality 100.0 %
Test CRC 11650342
Copy CRC 11650342
Accurately ripped (confidence 4) [FA37C0B9] (AR v2)
Copy OK

Track 2

Filename E:Kenny Burrell – 1957 – All Night Long2 Boo-Lu.wav

Pre-gap length 0:00:00.21

Peak level 62.4 %
Extraction speed 3.0 X
Track quality 100.0 %
Test CRC 1C15E980
Copy CRC 1C15E980
Accurately ripped (confidence 4) [82056637] (AR v2)
Copy OK

Track 3

Filename E:Kenny Burrell – 1957 – All Night Long3 Flickers.wav

Pre-gap length 0:00:00.21

Peak level 79.3 %
Extraction speed 3.3 X
Track quality 100.0 %
Test CRC 5247A89D
Copy CRC 5247A89D
Accurately ripped (confidence 4) [26F980CF] (AR v2)
Copy OK

Track 4

Filename E:Kenny Burrell – 1957 – All Night Long4 Li’l Hankie.wav

Pre-gap length 0:00:00.21

Peak level 82.0 %
Extraction speed 3.6 X
Track quality 100.0 %
Test CRC 58A75DF7
Copy CRC 58A75DF7
Accurately ripped (confidence 4) [E68F9628] (AR v2)
Copy OK

All tracks accurately ripped

No errors occurred

End of status report

–– CUETools DB Plugin V2.1.3

[CTDB TOCID: MrKfOUHb_jYPQVfxjnqT6qurbk8-] found, Submit result: MrKfOUHb_jYPQVfxjnqT6qurbk8- has been confirmed
[1008a3f2] (1/1) Accurately ripped

==== Log checksum E1B97CF165496D31B776F77CF62B48D8123883ADE5E8900059C66AAC8E01BEB6 ====

Dynamic Range Analysis
––––––––––––––––––––––––––––––––––––––––
Analyzed: Kenny Burrell / All Night Long
––––––––––––––––––––––––––––––––––––––––

DR Peak RMS Duration Track
––––––––––––––––––––––––––––––––––––––––
DR11 -2.32 dB -16.35 dB 17:16 01-All Night Long
DR12 -4.09 dB -18.87 dB 6:49 02-Boo-Lu
DR13 -2.01 dB -17.09 dB 6:15 03-Flickers
DR13 -1.72 dB -17.91 dB 8:28 04-Li’l Hankie
––––––––––––––––––––––––––––––––––––––––

Number of tracks: 4
Official DR value: DR12

Samplerate: 44100 Hz
Channels: 2
Bits per sample: 16
Bitrate: 671 kbps
Codec: FLAC
================================================================================

Donald Byrd & Kenny Burrell - All Night Long (1956) {Prestige}
Donald Byrd & Kenny Burrell - All Night Long (1956) {Prestige}
Donald Byrd & Kenny Burrell - All Night Long (1956) {Prestige}
Thanks to the original ripper

Donald Byrd & Kenny Burrell – All Night Long (1956) {Prestige} Download, Warez, DDL, Free, Full Album, Torrent, Legal.

Download