Don Cherry Quintets featuring Archie Shepp & Gato Barbieri – Copenhagen 1963 & Hilversum 1966 (1963-66) {FreeFactory 069}

Download
Don Cherry Quintets featuring Archie Shepp & Gato Barbieri - Copenhagen 1963 & Hilversum 1966 (1963-66) {FreeFactory 069}

Don Cherry Quintets featuring Archie Shepp & Gato Barbieri – Copenhagen 1963 & Hilversum 1966 (1963-66) {FreeFactory 069}
EAC rip (secure mode) | FLAC (tracks)+CUE+LOG -> 247 Mb | MP3 @320 -> 135 Mb
Full Artwork @ 300 dpi (jpg) -> 30 Mb | 5% repair rar
© 1963, 1966, 2010 FreeFactory | 069
Jazz / Hard Bop / Avant-Garde Jazz / Trumpet / Saxophone

Two previously unreleased 1960s performances by Don Cherry in quintet format. The first show was recorded in Denmark in 1963 (but a different date that the release on Storyville) and showcases the New York Contemporary Five, featuring Cherry with Archie Shepp, John Tchicai, Don Moore and J.C. Moses.

Don Cherry Quintets featuring Archie Shepp & Gato Barbieri - Copenhagen 1963 & Hilversum 1966 (1963-66) {FreeFactory 069}

In fact, none of the New York Contemporary Five members were New York natives. Don Cherry was born in Oklahoma City in1936; John Tchicai (born in 1936) is Danish, but he moved to New York in 1963; Don Moore was born in Philadelphia in 1938, Archie Shepp was born in Florida in 1937, and J.C. Moses was born in Pittsburgh in 1936 (Moses passed away in 1977).

After these Copenhagen sessions, Cherry and Shepp wouldn’t record together again until 1983. The bonus second session, in Holland, presents the trumpeter in another quintet setting with Argentinean saxophonist Gato Barbieri.

Don Cherry Quintets featuring Archie Shepp & Gato Barbieri - Copenhagen 1963 & Hilversum 1966 (1963-66) {FreeFactory 069}

tracklist & personnel:
The New York Contemporary Five

01 – Emotions
02 – Monk’s Mood
03 – Consequences

Archie Shepp – tenor sax
John Tchicai – alto sax
Don Cherry – trumpet
Don Moore – bass
J.C. Moses – drums

Recorded: October 27, 1963 Live at Koncertsal, Copenhagen

Don Cherry Quintet
04 – Exodus
05 – Suite: For The Children / Afro-Blue / I Remember Clifford

Leandro "Gato" Barbieri – tenor sax
Don Cherry – trumpet
Karl Berger – vibes, piano
Bo Stief – bass
Aldo Romano – drums

Recorded: May 9, 1966 Hilversum, Holland

EAC log
Exact Audio Copy V1.0 beta 1 from 15. November 2010

EAC extraction logfile from 2. May 2011, 17:10

Don Cherry / Copenhagen 1963 & Hilversum 1966

Used drive : _NEC DVD_RW ND-3520A Adapter: 1 ID: 0

Read mode : Secure
Utilize accurate stream : Yes
Defeat audio cache : Yes
Make use of C2 pointers : No

Read offset correction : 48
Overread into Lead-In and Lead-Out : No
Fill up missing offset samples with silence : Yes
Delete leading and trailing silent blocks : No
Null samples used in CRC calculations : Yes
Used interface : Installed external ASPI interface
Gap handling : Appended to previous track

Used output format : User Defined Encoder
Selected bitrate : 1024 kBit/s
Quality : High
Add ID3 tag : No
Command line compressor : C:Program FilesExact Audio CopyFLACFLAC.EXE
Additional command line options : -8 -V -T "ARTIST=%a" -T "TITLE=%t" -T "ALBUM=%g" -T "DATE=%y" -T "TRACKNUMBER=%n" -T "TOTALTRACKS=%x" -T "GENRE=%m" -T "ALBUMARTIST=%v" -T "ALBUM ARTIST=%v" -T "COMMENT=EAC Secure Mode, Test & Copy, AccurateRip, FLAC -8" %s

TOC of the extracted CD

Track | Start | Length | Start sector | End sector
––––––––––––––––––––––––––––-
1 | 0:00.00 | 9:42.36 | 0 | 43685
2 | 9:42.36 | 2:55.36 | 43686 | 56846
3 | 12:37.72 | 16:23.59 | 56847 | 130630
4 | 29:01.56 | 6:31.20 | 130631 | 159975
5 | 35:33.01 | 25:16.18 | 159976 | 273693

Track 1

Filename C:Documents and SettingsAll UsersDocumentsUploadsExDon Cherry – Copenhagen 1963 & Hilversum 1966 (1963-66) [FLAC]1 – Emotions.wav

Pre-gap length 0:00:02.00

Peak level 89.1 %
Extraction speed 4.6 X
Track quality 100.0 %
Test CRC F6305C5D
Copy CRC F6305C5D
Accurately ripped (confidence 1) [32922D76]
Copy OK

Track 2

Filename C:Documents and SettingsAll UsersDocumentsUploadsExDon Cherry – Copenhagen 1963 & Hilversum 1966 (1963-66) [FLAC]2 – Monk’s Mood.wav

Peak level 83.0 %
Extraction speed 4.5 X
Track quality 100.0 %
Test CRC C3E3AD57
Copy CRC C3E3AD57
Accurately ripped (confidence 1) [D2B7C3BF]
Copy OK

Track 3

Filename C:Documents and SettingsAll UsersDocumentsUploadsExDon Cherry – Copenhagen 1963 & Hilversum 1966 (1963-66) [FLAC]3 – Consequences.wav

Peak level 89.1 %
Extraction speed 6.1 X
Track quality 100.0 %
Test CRC 320CE982
Copy CRC 320CE982
Accurately ripped (confidence 1) [2885D858]
Copy OK

Track 4

Filename C:Documents and SettingsAll UsersDocumentsUploadsExDon Cherry – Copenhagen 1963 & Hilversum 1966 (1963-66) [FLAC]4 – Exodus.wav

Peak level 97.1 %
Extraction speed 6.5 X
Track quality 100.0 %
Test CRC 83C4F138
Copy CRC 83C4F138
Accurately ripped (confidence 1) [0522725D]
Copy OK

Track 5

Filename C:Documents and SettingsAll UsersDocumentsUploadsExDon Cherry – Copenhagen 1963 & Hilversum 1966 (1963-66) [FLAC]5 – Suite For the Children, Afro Blue, Remember Clifford.wav

Peak level 95.8 %
Extraction speed 7.8 X
Track quality 100.0 %
Test CRC F961C0D8
Copy CRC F961C0D8
Accurately ripped (confidence 1) [E4FE083A]
Copy OK

All tracks accurately ripped

No errors occurred

End of status report

==== Log checksum B64A4FF51286356DBBAC149BFF0DC693EFFE67ADA1CA85CFB630E2208215A87C ====

Don Cherry Quintets featuring Archie Shepp & Gato Barbieri - Copenhagen 1963 & Hilversum 1966 (1963-66) {FreeFactory 069}

Don Cherry Quintets featuring Archie Shepp & Gato Barbieri - Copenhagen 1963 & Hilversum 1966 (1963-66) {FreeFactory 069}

All thanks goes to the original releaser!

===

Don Cherry Quintets featuring Archie Shepp & Gato Barbieri – Copenhagen 1963 & Hilversum 1966 (1963-66) {FreeFactory 069} Download, Warez, DDL, Free, Full Album, Torrent, Legal.

Download