Don Bryant – Comin' On Strong (1964-1970) {Hi Records HUKCD133 rel 1992}

Download
Don Bryant - Comin' On Strong (1964-1970) {Hi Records HUKCD133 rel 1992}

Don Bryant – Comin On Strong (1964-1970) {Hi Records HUKCD133 rel 1992}
EAC rip (secure mode) | FLAC (tracks)+CUE+LOG -> 251 Mb | MP3 @320 -> 108 Mb
Full Artwork @ 300 dpi (jpg) -> 12 Mb | 5% repair rar
© 1964-70, 1992 Hi Records / Demon Records | HUKCD133
Soul / Memphis Soul / Soul-Blues

Comin’ On Strong album for sale by Don Bryant was released on Aug 21, 1992. Liner Note Author: Clive Anderson. Comin’ On Strong CD music contains a single disc with 20 songs. 20 cuts from the unsung hero of R&B Comin’ On Strong songs.

Musicians
Vocals Don Bryant

and others…

tracklist:
01 Don’t Turn Your Back On Me 02:08
02 Star Of Love 02:09
03 I’ll Do The Rest 02:15
04 The Lonely Soldier 02:34
05 The Call Of Distress 02:20
06 Is That Asking Too Much? 02:35
07 I’ll Go Crazy 02:05
08 It’s So Lonely Being Me 02:35
09 Been So Long 02:16
10 I Will Be True 02:09
11 I Like It Like That 02:26
12 My Baby 02:14
13 Everything Is Gonna Be Alright 02:22
14 The Glory Of Love 02:08
15 Comin’ On Strong 02:19
16 Can’t Hide The Hurt 02:07
17 There Is Something On Your Mind (Part 1) 02:22
18 There Is Something On Your Mind (Part 2) 02:30
19 Shop Around 02:36
20 What Are You Doing To My World? 02:13

EAC log
Exact Audio Copy V1.1 from 23. June 2015

EAC extraction logfile from 13. May 2017, 15:20

Don Bryant / Comin On Strong

Used drive : MATSHITADVD+-RW SW830 Adapter: 1 ID: 0

Read mode : Secure
Utilize accurate stream : Yes
Defeat audio cache : Yes
Make use of C2 pointers : No

Read offset correction : 6
Overread into Lead-In and Lead-Out : No
Fill up missing offset samples with silence : Yes
Delete leading and trailing silent blocks : No
Null samples used in CRC calculations : Yes
Used interface : Native Win32 interface for Win NT & 2000
Gap handling : Appended to previous track

Used output format : User Defined Encoder
Selected bitrate : 896 kBit/s
Quality : High
Add ID3 tag : No
Command line compressor : C:Program Files (x86)Exact Audio CopyFlacflac.exe
Additional command line options : -8 -V -T "ARTIST=%artist%" -T "TITLE=%title%" -T "ALBUM=%albumtitle%" -T "DATE=%year%" -T "TRACKNUMBER=%tracknr%" -T "TOTALTRACKS=%numtracks%" -T "GENRE=%genre%" -T "ALBUMARTIST=%albumartist%" -T "ALBUM ARTIST=%albumartist%" -T "COMMENT=EAC Secure Mode, Test & Copy, AccurateRip, FLAC -8" %source%

TOC of the extracted CD

Track | Start | Length | Start sector | End sector
––––––––––––––––––––––––––––-
1 | 0:00.32 | 2:08.43 | 32 | 9674
2 | 2:09.00 | 2:09.60 | 9675 | 19409
3 | 4:18.60 | 2:15.00 | 19410 | 29534
4 | 6:33.60 | 2:34.45 | 29535 | 41129
5 | 9:08.30 | 2:20.70 | 41130 | 51699
6 | 11:29.25 | 2:35.50 | 51700 | 63374
7 | 14:05.00 | 2:05.10 | 63375 | 72759
8 | 16:10.10 | 2:35.42 | 72760 | 84426
9 | 18:45.52 | 2:16.18 | 84427 | 94644
10 | 21:01.70 | 2:09.12 | 94645 | 104331
11 | 23:11.07 | 2:26.18 | 104332 | 115299
12 | 25:37.25 | 2:14.25 | 115300 | 125374
13 | 27:51.50 | 2:22.52 | 125375 | 136076
14 | 30:14.27 | 2:08.70 | 136077 | 145746
15 | 32:23.22 | 2:19.10 | 145747 | 156181
16 | 34:42.32 | 2:07.30 | 156182 | 165736
17 | 36:49.62 | 2:22.65 | 165737 | 176451
18 | 39:12.52 | 2:30.40 | 176452 | 187741
19 | 41:43.17 | 2:36.50 | 187742 | 199491
20 | 44:19.67 | 2:13.03 | 199492 | 209469

Track 1

Filename G:New RipsDon Bryant – Comin On Strong (1992) [FLAC]1 – Don’t Turn Your Back On Me.wav

Pre-gap length 0:00:02.32

Peak level 93.1 %
Extraction speed 3.7 X
Track quality 100.0 %
Test CRC 50108861
Copy CRC 50108861
Accurately ripped (confidence 1) [ECBD4CE1] (AR v1)
Copy OK

Track 2

Filename G:New RipsDon Bryant – Comin On Strong (1992) [FLAC]2 – Star Of Love.wav

Pre-gap length 0:00:01.05

Peak level 87.3 %
Extraction speed 2.9 X
Track quality 99.9 %
Test CRC 1F675B15
Copy CRC 1F675B15
Accurately ripped (confidence 1) [2DA25B41] (AR v1)
Copy OK

Track 3

Filename G:New RipsDon Bryant – Comin On Strong (1992) [FLAC]3 – I’ll Do The Rest.wav

Pre-gap length 0:00:00.30

Peak level 77.2 %
Extraction speed 4.1 X
Track quality 100.0 %
Test CRC 8092A454
Copy CRC 8092A454
Accurately ripped (confidence 1) [3800798F] (AR v1)
Copy OK

Track 4

Filename G:New RipsDon Bryant – Comin On Strong (1992) [FLAC]4 – The Lonely Soldier.wav

Pre-gap length 0:00:00.65

Peak level 100.0 %
Extraction speed 4.5 X
Track quality 100.0 %
Test CRC 44A0988F
Copy CRC 44A0988F
Accurately ripped (confidence 1) [9C68F990] (AR v1)
Copy OK

Track 5

Filename G:New RipsDon Bryant – Comin On Strong (1992) [FLAC]5 – The Call Of Distress.wav

Pre-gap length 0:00:00.35

Peak level 90.0 %
Extraction speed 4.6 X
Track quality 100.0 %
Test CRC AEC2BE9E
Copy CRC AEC2BE9E
Accurately ripped (confidence 1) [4529C715] (AR v1)
Copy OK

Track 6

Filename G:New RipsDon Bryant – Comin On Strong (1992) [FLAC]6 – Is That Asking Too Much.wav

Pre-gap length 0:00:00.55

Peak level 93.8 %
Extraction speed 3.8 X
Track quality 99.9 %
Test CRC 8E403F6C
Copy CRC 8E403F6C
Accurately ripped (confidence 1) [3806E834] (AR v1)
Copy OK

Track 7

Filename G:New RipsDon Bryant – Comin On Strong (1992) [FLAC]7 – I’ll Go Crazy.wav

Pre-gap length 0:00:00.33

Peak level 74.8 %
Extraction speed 3.6 X
Track quality 99.9 %
Test CRC 5EFDF6A9
Copy CRC 5EFDF6A9
Accurately ripped (confidence 1) [2F588E88] (AR v1)
Copy OK

Track 8

Filename G:New RipsDon Bryant – Comin On Strong (1992) [FLAC]8 – It’s So Lonely Being Me.wav

Pre-gap length 0:00:01.30

Peak level 86.0 %
Extraction speed 5.3 X
Track quality 100.0 %
Test CRC 255E42B0
Copy CRC 255E42B0
Accurately ripped (confidence 1) [BAB85892] (AR v1)
Copy OK

Track 9

Filename G:New RipsDon Bryant – Comin On Strong (1992) [FLAC]9 – Been So Long.wav

Pre-gap length 0:00:00.57

Peak level 99.4 %
Extraction speed 5.5 X
Track quality 100.0 %
Test CRC F376C381
Copy CRC F376C381
Accurately ripped (confidence 1) [95DBC6F5] (AR v1)
Copy OK

Track 10

Filename G:New RipsDon Bryant – Comin On Strong (1992) [FLAC]10 – I Will Be True.wav

Pre-gap length 0:00:00.60

Peak level 99.1 %
Extraction speed 4.1 X
Track quality 99.9 %
Test CRC A53C42FF
Copy CRC A53C42FF
Accurately ripped (confidence 1) [68BD0C93] (AR v1)
Copy OK

Track 11

Filename G:New RipsDon Bryant – Comin On Strong (1992) [FLAC]11 – I Like It Like That.wav

Peak level 88.5 %
Extraction speed 5.9 X
Track quality 100.0 %
Test CRC 037C1E70
Copy CRC 037C1E70
Accurately ripped (confidence 1) [EAF22D2E] (AR v1)
Copy OK

Track 12

Filename G:New RipsDon Bryant – Comin On Strong (1992) [FLAC]12 – My Baby.wav

Pre-gap length 0:00:00.55

Peak level 100.0 %
Extraction speed 5.8 X
Track quality 100.0 %
Test CRC 59444E1B
Copy CRC 59444E1B
Accurately ripped (confidence 1) [2999031C] (AR v1)
Copy OK

Track 13

Filename G:New RipsDon Bryant – Comin On Strong (1992) [FLAC]13 – Everything Is Gonna Be Alright.wav

Pre-gap length 0:00:00.30

Peak level 76.6 %
Extraction speed 6.1 X
Track quality 100.0 %
Test CRC 80D15FF9
Copy CRC 80D15FF9
Accurately ripped (confidence 1) [8F8A08D8] (AR v1)
Copy OK

Track 14

Filename G:New RipsDon Bryant – Comin On Strong (1992) [FLAC]14 – The Glory Of Love.wav

Pre-gap length 0:00:01.12

Peak level 100.0 %
Extraction speed 6.2 X
Track quality 100.0 %
Test CRC 2499C2B9
Copy CRC 2499C2B9
Accurately ripped (confidence 1) [3AC46C55] (AR v1)
Copy OK

Track 15

Filename G:New RipsDon Bryant – Comin On Strong (1992) [FLAC]15 – Comin’ On Strong.wav

Pre-gap length 0:00:00.27

Peak level 89.9 %
Extraction speed 4.8 X
Track quality 99.9 %
Test CRC D29DBE61
Copy CRC D29DBE61
Accurately ripped (confidence 1) [AC5DCC2F] (AR v1)
Copy OK

Track 16

Filename G:New RipsDon Bryant – Comin On Strong (1992) [FLAC]16 – Can’t Hide The Hurt.wav

Pre-gap length 0:00:00.37

Peak level 89.2 %
Extraction speed 6.3 X
Track quality 100.0 %
Test CRC 42E66FC1
Copy CRC 42E66FC1
Accurately ripped (confidence 1) [7C209451] (AR v1)
Copy OK

Track 17

Filename G:New RipsDon Bryant – Comin On Strong (1992) [FLAC]17 – There Is Something On Your Mind 01.wav

Pre-gap length 0:00:00.35

Peak level 96.3 %
Extraction speed 6.7 X
Track quality 100.0 %
Test CRC EEE803E3
Copy CRC EEE803E3
Accurately ripped (confidence 1) [5EBFB256] (AR v1)
Copy OK

Track 18

Filename G:New RipsDon Bryant – Comin On Strong (1992) [FLAC]18 – There Is Something On Your Mind 02.wav

Pre-gap length 0:00:00.57

Peak level 70.7 %
Extraction speed 6.9 X
Track quality 100.0 %
Test CRC CE7B0A49
Copy CRC CE7B0A49
Accurately ripped (confidence 1) [974C28F8] (AR v1)
Copy OK

Track 19

Filename G:New RipsDon Bryant – Comin On Strong (1992) [FLAC]19 – Shop Around.wav

Peak level 85.4 %
Extraction speed 5.3 X
Track quality 99.9 %
Test CRC 702A3442
Copy CRC 702A3442
Accurately ripped (confidence 1) [21E6B627] (AR v1)
Copy OK

Track 20

Filename G:New RipsDon Bryant – Comin On Strong (1992) [FLAC]20 – What Are You Doing To My World.wav

Peak level 100.0 %
Extraction speed 7.1 X
Track quality 100.0 %
Test CRC CE6BFF55
Copy CRC CE6BFF55
Accurately ripped (confidence 1) [CECA6BC3] (AR v1)
Copy OK

All tracks accurately ripped

No errors occurred

End of status report

–– CUETools DB Plugin V2.1.6

[CTDB TOCID: 146nT.uo_ClvbdtWu9ZZFOzNZw8-] disk not present in database
Submit result: 146nT.uo_ClvbdtWu9ZZFOzNZw8- has been uploaded

==== Log checksum 05551F0E062B837865ECC79FBE76EEB3CF1E1C6E538DC96C2AA0C1377640479F ====

Don Bryant - Comin' On Strong (1964-1970) {Hi Records HUKCD133 rel 1992}

Don Bryant - Comin' On Strong (1964-1970) {Hi Records HUKCD133 rel 1992}

===

Don Bryant – Comin' On Strong (1964-1970) {Hi Records HUKCD133 rel 1992} Download, Warez, DDL, Free, Full Album, Torrent, Legal.

Download