Dodo Marmarosa – Dodo's Back! (1961) {Argo Japan Mini LP UCCC-9007 – 24bit/96kHz mastering rel 2007}

Download
Dodo Marmarosa - Dodo's Back! (1961) {Argo Japan Mini LP UCCC-9007 - 24bit/96kHz mastering rel 2007}

Dodo Marmarosa – Dodo’s Back! (1961) {Argo Japan Mini LP UCCC-9007 – 24bit/96kHz mastering rel 2007}
EAC rip (secure mode) | FLAC (tracks)+CUE+LOG -> 230 Mb | MP3 @320 -> 97 Mb
Full Artwork @ 300 dpi (jpg) -> 23 Mb | 5% repair rar
© 1961, 2007 Argo / Universal Japan | UCCC-9007 | Mini LP | 24bit/96kHz mastering
Jazz / Bop / Bebop / Piano Trio

Limited Edition Japanese pressing of this album comes housed in a miniature LP sleeve with the latest 24bit/96kHz mastering. Michael "Dodo" Marmarosa, born Pittsburgh, December 12, 1925, died September 17, 2002, jazz piano player, a link between swing and bebop, recorded with (among others) Lester Young, Charlie Parker, Lucky Thompson, Barney Kessel, Charlie Barnet and Slim Gaillard; retired from music, early sixties; died 76.
That’s what you surely will read in many books about him.
Of course, Dodo disappeared from music when he was only 36; but he’ll forever remain as one essential link between the swing era and bebop. Maybe he was one of the founders of bebop. Just a great musician.
Coming from an Italian family, he started his professionnal career while he was in his teens; please, note the fact that he came from Pittsburgh, a town who gave jazz some of its greatest piano players: Erroll Garner, Earl Hines. But Dodo’s main influence certainly was Teddy Wilson. It’s obvious in his playing, even if there are some Garner’s phrases, too. Dodo can be compared to musicians like Hank Jones, or even Tommy Flanagan, or Clyde Hart; they allways were just between swing and bop, just between Wilson, or Tatum, or Chittison, and Bud.

Dodo Marmarosa - Dodo's Back! (1961) {Argo Japan Mini LP UCCC-9007 - 24bit/96kHz mastering rel 2007}

This session is one of the last (and maybe the last one) Dodo ever recorded. This happened May 9 and 10, 1961; the trio includes Richard Evans, bass, and Marshall Thompson, drums. And Dodo plays great, of course; some standards that were often played by bop musicians ("everything happens to me", "why do I love you", by Bird)," on green dolphin street (Rollins, Dorham, etc,etc), "I thought about you", two original compositions ("mellow mood" and "Tracy’s blues") and some lesser known tunes, "You call it madness" (a Nat King Cole hit), "cottage for sale" (remember Earl Hines’ Village Vanguard version?), "April played the fiddle" and "me and my shadow".
But Dodo Marmarosa was nothing. Nothing but a very talented pianist. He wasn’t the creator of a new style. He was just among a lot of guys who created a new way of playing, a long long time ago. Why losing time listening to him? Rather listen to Keith Jarrett or Brad Meldhau, it will certainly be much more interesting. Please, forget this guy, just like Lucky Thompson, Don Sleet, Roy Brooks, Roland Hanna; just like Chet Baker, Frank Morgan and some others were forgotten some thirty years ago. They are no commercial musicians, they are just pure artists. So, why losing time to listen to Dodo? He only was one of the founders of bebop. Such a long time ago.
Just one of the major jazz piano players. Who cares about it?

Dodo Marmarosa - Dodo's Back! (1961) {Argo Japan Mini LP UCCC-9007 - 24bit/96kHz mastering rel 2007}

Personnel:
Michael "Dodo" Marmarosa – piano
Richard Evans – bass
Marshall Thompson – drums

tracklist:
01 – Mellow Mood
02 – Cottage For Sale
03 – April Played The Fiddle
04 – Everything Happeds To Me
05 – On Green Dolphin Street
06 – Why Do I Love You
07 – I Thought About You
08 – Me And My Shadow
09 – Tracy’s Blues
10 – You Call It Madness

EAC log
EAC extraction logfile from 4. July 2010, 13:17 for CD
Dodo Marmarosa / Dodo’s Back!

Used drive : HP DVD Writer 1170d Adapter: 1 ID: 1
Read mode : Secure with NO C2, accurate stream, disable cache
Read offset correction : 6
Overread into Lead-In and Lead-Out : No

Used output format : C:EacCodecsflac.exe (User Defined Encoder)
320 kBit/s
Additional command line options : -8 -V -T "artist=%a" -T "title=%t" -T "album=%g" -T "date=%y" -T "tracknumber=%n" -T "genre=%m" -T "comment=EAC Flac 1.1.2 -8" %s

Other options :
Fill up missing offset samples with silence : Yes
Delete leading and trailing silent blocks : No
Installed external ASPI interface

Track 1
Filename C:Documents and Settingsdodo1 – Mellow Mood.wav

Pre-gap length 0:00:02.00

Peak level 100.0 %
Track quality 100.0 %
Test CRC 17CA8436
Copy CRC 17CA8436
Copy OK

Track 2
Filename C:Documents and Settingsdodo2 – Cottage For Sale.wav

Pre-gap length 0:00:02.92

Peak level 94.7 %
Track quality 100.0 %
Test CRC 1060AB92
Copy CRC 1060AB92
Copy OK

Track 3
Filename C:Documents and Settingsdodo3 – April Played The Fiddle.wav

Pre-gap length 0:00:02.69

Peak level 98.7 %
Track quality 100.0 %
Test CRC 3661E0A2
Copy CRC 3661E0A2
Copy OK

Track 4
Filename C:Documents and Settingsdodo4 – Everything Happeds To Me.wav

Pre-gap length 0:00:02.52

Peak level 69.9 %
Track quality 100.0 %
Test CRC 24C44699
Copy CRC 24C44699
Copy OK

Track 5
Filename C:Documents and Settingsdodo5 – On Green Dolphin Street.wav

Pre-gap length 0:00:02.69

Peak level 100.0 %
Track quality 100.0 %
Test CRC D2C8895D
Copy CRC D2C8895D
Copy OK

Track 6
Filename C:Documents and Settingsdodo6 – Why Do I Love You .wav

Pre-gap length 0:00:02.85

Peak level 88.4 %
Track quality 100.0 %
Test CRC EAEA65B6
Copy CRC EAEA65B6
Copy OK

Track 7
Filename C:Documents and Settingsdodo7 – I Thought About You.wav

Pre-gap length 0:00:03.41

Peak level 75.9 %
Track quality 100.0 %
Test CRC 4F865B0C
Copy CRC 4F865B0C
Copy OK

Track 8
Filename C:Documents and Settingsdodo8 – Me And My Shadow.wav

Pre-gap length 0:00:02.62

Peak level 98.6 %
Track quality 100.0 %
Test CRC 070D3DD7
Copy CRC 070D3DD7
Copy OK

Track 9
Filename C:Documents and Settingsdodo9 – Tracy’s Blues.wav

Pre-gap length 0:00:02.58

Peak level 100.0 %
Track quality 100.0 %
Test CRC 89EDB498
Copy CRC 89EDB498
Copy OK

Track 10
Filename C:Documents and Settingsdodo10 – You Call It Madness.wav

Pre-gap length 0:00:03.52

Peak level 93.6 %
Track quality 100.0 %
Test CRC 7F071EE3
Copy CRC 7F071EE3
Copy OK

No errors occured

End of status report

Dodo Marmarosa - Dodo's Back! (1961) {Argo Japan Mini LP UCCC-9007 - 24bit/96kHz mastering rel 2007}

Dodo Marmarosa - Dodo's Back! (1961) {Argo Japan Mini LP UCCC-9007 - 24bit/96kHz mastering rel 2007}

===

Dodo Marmarosa – Dodo's Back! (1961) {Argo Japan Mini LP UCCC-9007 – 24bit/96kHz mastering rel 2007} Download, Warez, DDL, Free, Full Album, Torrent, Legal.

Download