Django Reinhardt – The Complete Django Reinhardt and Quintet of the Hot Club of France Swing/HMV Sessions 1936-1948 (1999)

Download
Django Reinhardt - The Complete Django Reinhardt and Quintet of the Hot Club of France Swing/HMV Sessions 1936-1948 (1999)

Django Reinhardt – The Complete Django Reinhardt and Quintet of the Hot Club of France Swing/HMV Sessions 1936-1948 (1999) {6CD Mosaic MD6-190}
EAC rip (secure mode) | FLAC (tracks)+CUE+LOG -> 1.08 Gb | MP3 @320 -> 837 Mb
Full Artwork @ 600 dpi (jpg) -> 216 Mb | 5% repair rar
© 1936-1948, 1999 Mosaic Records / EMI-Capitol | MD6-190
Jazz / Continental Jazz / Swing / Gypsy / Guitar

This is the Reinhardt mother lode – a six-disc collection of the Gypsy legend’s oeuvre stretching from just before to just after World War II. Disc one includes several infectious cuts with vocalist Freddy Taylor, beginning with Stuff Smith’s "I’se a Muggin’." Disc six closes with one of Reinhardt and Grappelli’s last recording sessions together, which included an unusually dark reading of "Oh Lady Be Good" and a revisitation of the obscure "Bricktop" (the first version appears on disc two). In between are well over 100 marvelous tracks, with sound quality up to Mosaic’s (and Michael Cuscuna’s) impeccable standards. The booklet contains a learned essay and annotation by Mike Peters, as well as an impressive gallery of photographs, concert posters, and news clippings. Extraordinary, and for Reinhardt’s most devoted fans, entirely worth the investment.

Django Reinhardt - The Complete Django Reinhardt and Quintet of the Hot Club of France Swing/HMV Sessions 1936-1948 (1999)

When it comes to the real roots of jazz guitar, two names clearly standout in the minds of most jazz followers- Charlie Christian and Django Reinhardt. While the recordings of the former are few enough in number to make it a somewhat easy task to acquire, the latter’s fairly large body of work poses a challenge in terms of the novice. Add to this the fact that many foreign issues exist and that in addition to his work as a solo artist Reinhardt was also a key member of the Quintet of the Hot Club of France (QHCF). This group was formed in 1932 and included two rhythm guitars, Django’s solo voice, and the violin of the legendary Stephane Grappelli, although several subtle variations of this grouping were offered up in later years.

This massive seven-disc set is a great “one-stop shop” in terms of the quantity and quality of Django music that it presents. The first six sessions from 1936 and 1937 were originally cut for the HMV label and they contain a wealth of three-minute masterpieces that capture the QHCF at a creative peak. There‘s a few throw away vocals from Freddy Taylor intermixed, but they certainly do nothing to spoil the inspired atmosphere.

Eventually the QHCF would jump labels, with subsequent work in this set coming from the Disques Swing catalog. There would also be experimentation with different line-ups and the addition of a drummer and/or pianist on occasion. This productive period of recording would run from 1937 through 1943 with such classics as “Nuages “and “Festival Swing” being just two highlights among many.

The mid-‘40s, of course, brought World War II and the German occupation, which left Reinhardt and many foreign jazz artists in limbo for many years. In fact, Django and Grappelli hadn’t seen or spoken to each other in over six years by the time they were able to team up again for the 1946-1948 recordings that conclude this set. Both players seem more adept by this time, not that they were slouches before, and the improved recording technology allows additional subtle nuances to be heard. Django, in particular, amazes with his dexterity, advanced chordal work, and distinguishing sound, all qualities that continue to endear him to guitarists around the globe to this day.

Mosaic’s typical aesthetics are to be found with this boxed set- great sound quality matched with an informative 28-page booklet that includes rare photos, plus commentary by guitarist and Django expert Mike Peters. There’s really no better place to start your Reinhardt collection than with this offering, but you’ll need to grab it fast because of the limited quantities endemic to all Mosaic packages.

Django Reinhardt - The Complete Django Reinhardt and Quintet of the Hot Club of France Swing/HMV Sessions 1936-1948 (1999)

tracklist:
Disc 1

01 – I’se A Muggin’
02 – I Can’t Give You Anything But Love (A)
03 – Oriental Shuffle (A)
04 – After You’ve Gone (A)
05 – Are You In The Mood (A)
06 – Limehouse Blues (A)
07 – Nagasaki (B)
08 – Swing Guitars (B)
09 – Georgia On My Mind (B)
10 – Shine (B)
11 – In The Still Of The Night (B)
12 – Sweet Chorus (B)
13 – Exactly Like You (C)
14 – Charleston (C)
15 – You’re Driving Me Crazy (C)
16 – Tears (C)
17 – Solitude (C)
18 – Hot Lips (D)
19 – Ain’t Misbehavin’ (D)

Disc 2
01 – Rose Room (D)
02 – Body And Soul (D)
03 – When Day Is Done (D)
04 – Runnin’ Wild (E)
05 – Chicago (E)
06 – Lieberstraum No. 3 (E)
07 – Miss Annabelle Lee (E)
08 – A Little Love, A Little Kiss (E)
09 – Mystery Pacific (E)
10 – In A Sentimental Mood (E)
11 – The Sheik of Araby (F)
12 – I’ve Found A New Baby (F)
13 – Alabama Bound (F)
14 – Improvisation (F)
15 – Parfum (F)
16 – St. Louis Blues (G)
17 – Bouncin’ Around (G)
18 – I’ve Found A New Baby (H)
19 – Bricktop (H)
20 – Speevey (I)

Django Reinhardt - The Complete Django Reinhardt and Quintet of the Hot Club of France Swing/HMV Sessions 1936-1948 (1999)

Disc 3
01 – Minor Swing (I)
02 – Viper’s Dream (I)
03 – Swingin’ With Django (J)
04 – Paramount Stomp (J)
05 – Bolero (K)
06 – Bolero (alt tk) (K)
07 – Mabel (alt tk) (K)
08 – Mabel (K)
09 – My Serenade (K)
10 – You Rascal You (L)
11 – Stephen’s Blues (L)
12 – Sugar (L)
13 – Sweet Georgia Brown (L)
14 – Tea For Two (L)
15 – Stockholm (M)
16 – Younger Generation (M)
17 – I’ll See You In My Dreams (M)
18 – Echoes Of Spain (M)
19 – Out Of Nowhere (M)
20 – I Can’t Give You Anything But Love (M)
21 – Naguine (M)

Disc 4
01 – Nuages (N)
02 – Rhythm Futur (N)
03 – Begin The Beguine (N)
04 – Blues (N)
05 – Coucou (N)
06 – Indecision (Undecided) (N)
07 – Swing 41 (O)
08 – Nuages (O)
09 – Pour Vous ( Exactly Like You) (O)
10 – Fantaisie Sur Une Danse, Norvegienne (O)
11 – Vendredi 13 (O)
12 – Liebesfreud (O)
13 – Mabel (O)
14 – Pettis Mensonges (Little White Lies) (O)
15 – Les Yeux Noirs (Dark Eyes) (O)
16 – Sweet Sue, Just You (O)
17 – Swing De Paris (P)
18 – Oiseaux Des Iles (P)
19 – All Of Me (P)

Django Reinhardt - The Complete Django Reinhardt and Quintet of the Hot Club of France Swing/HMV Sessions 1936-1948 (1999)

Disc 5
01 – Festival Swing (Q)
02 – Dinette (R)
03 – Crepuscule (R)
04 – Swing 42 (R)
05 – Festival Swing 1942, Part 2 (S)
06 – Belleville (T)
07 – Lentement Mademoiselle (T)
08 – Douce Ambiance (U)
09 – Manoir De Mes Reves (U)
10 – Oui (U)
11 – Cavalerie (U)
12 – Fleur D’Ennui (V)
13 – Blue Clair (V)
14 – Improvisation No. 3 – Part I (V)
15 – Improvisation No. 3- Part II (V)
16 – Coquette (W)
17 – Django’s Tiger (W)
18 – Embraceable You (W)
19 – Echoes Of France (La Marseillaise) (W)

Disc 6
01 – Swingtime In Springtime (X)
02 – Yours And Mine (X)
03 – On The Sunny Side Of The Street (X)
04 – I Won’t Dance (X)
05 – R-Vingt-Six (Y)
06 – How High The Moon (Y)
07 – Lover Man (Y)
08 – Blue Lou (Y)
09 – Blues (Y)
10 – What Is This Thing Called Love (Z)
11 – Ol’ Man River (Z)
12 – Si Tu Savais (Z)
13 – Eveline (Z)
14 – Diminushing (Z)
15 – Mike (AA)
16 – Oh, Lady Be Good (AA)
17 – Festival 48 (AA)
18 – Fantaisie (AA)
19 – Bricktop (AA)
20 – Just For Fun (AA)
21 – To Each His Own,Symphonie (AA)

Notes: Letters refer to recording session information contained in the cd booklets.

EAC log CD1
EAC extraction logfile from 6. August 2006, 8:11 for CD
Django Reinhardt & The Hot Club of France Quintet / HMV Sessions 1936-1948 (Disc 1)

Used drive : TDK CDRW522448UED Adapter: 2 ID: 2
Read mode : Secure with NO C2, accurate stream, disable cache
Read offset correction : 6
Overread into Lead-In and Lead-Out : No

Used output format : C:Program FilesFLACflac.exe (User Defined Encoder)
192 kBit/s
Additional command line options : -V -8 -T "artist=%a" -T "title=%t" -T "album=%g" -T "date=%y" -T "tracknumber=%n" -T "genre=%m" %s

Other options :
Fill up missing offset samples with silence : Yes
Delete leading and trailing silent blocks : No
Installed external ASPI interface

Track 1
Filename C:mp3 ripsDjango Reinhardt & the Hot Club of France – HMV Sessions 1936-1948 flacDisc 11 – I’se A Muggin’.wav

Pre-gap length 0:00:02.00

Peak level 99.9 %
Track quality 99.9 %
Test CRC 4A5FEB47
Copy CRC 4A5FEB47
Copy OK

Track 2
Filename C:mp3 ripsDjango Reinhardt & the Hot Club of France – HMV Sessions 1936-1948 flacDisc 12 – I Can’t Give You Anything But Love (A).wav

Peak level 99.8 %
Track quality 100.0 %
Test CRC CD329FB1
Copy CRC CD329FB1
Copy OK

Track 3
Filename C:mp3 ripsDjango Reinhardt & the Hot Club of France – HMV Sessions 1936-1948 flacDisc 13 – Oriental Shuffle (A).wav

Peak level 92.2 %
Track quality 100.0 %
Test CRC 6B9FBE01
Copy CRC 6B9FBE01
Copy OK

Track 4
Filename C:mp3 ripsDjango Reinhardt & the Hot Club of France – HMV Sessions 1936-1948 flacDisc 14 – After You’ve Gone (A).wav

Peak level 96.2 %
Track quality 100.0 %
Test CRC 0EE5B82A
Copy CRC 0EE5B82A
Copy OK

Track 5
Filename C:mp3 ripsDjango Reinhardt & the Hot Club of France – HMV Sessions 1936-1948 flacDisc 15 – Are You In The Mood (A).wav

Peak level 91.8 %
Track quality 100.0 %
Test CRC 4384FEDE
Copy CRC 4384FEDE
Copy OK

Track 6
Filename C:mp3 ripsDjango Reinhardt & the Hot Club of France – HMV Sessions 1936-1948 flacDisc 16 – Limehouse Blues (A).wav

Peak level 93.3 %
Track quality 99.9 %
Test CRC F331902E
Copy CRC F331902E
Copy OK

Track 7
Filename C:mp3 ripsDjango Reinhardt & the Hot Club of France – HMV Sessions 1936-1948 flacDisc 17 – Nagasaki (B).wav

Peak level 89.8 %
Track quality 100.0 %
Test CRC FFBFC1E9
Copy CRC FFBFC1E9
Copy OK

Track 8
Filename C:mp3 ripsDjango Reinhardt & the Hot Club of France – HMV Sessions 1936-1948 flacDisc 18 – Swing Guitars (B).wav

Peak level 89.3 %
Track quality 100.0 %
Test CRC 1BAD64FB
Copy CRC 1BAD64FB
Copy OK

Track 9
Filename C:mp3 ripsDjango Reinhardt & the Hot Club of France – HMV Sessions 1936-1948 flacDisc 19 – Georgia On My Mind (B).wav

Peak level 89.0 %
Track quality 100.0 %
Test CRC B37846AD
Copy CRC B37846AD
Copy OK

Track 10
Filename C:mp3 ripsDjango Reinhardt & the Hot Club of France – HMV Sessions 1936-1948 flacDisc 110 – Shine (B).wav

Peak level 99.3 %
Track quality 99.9 %
Test CRC DA8236D8
Copy CRC DA8236D8
Copy OK

Track 11
Filename C:mp3 ripsDjango Reinhardt & the Hot Club of France – HMV Sessions 1936-1948 flacDisc 111 – In The Still Of The Night (B).wav

Peak level 99.9 %
Track quality 99.9 %
Test CRC 94FE0DC2
Copy CRC 94FE0DC2
Copy OK

Track 12
Filename C:mp3 ripsDjango Reinhardt & the Hot Club of France – HMV Sessions 1936-1948 flacDisc 112 – Sweet Chorus (B).wav

Peak level 99.9 %
Track quality 100.0 %
Test CRC 6AE85D13
Copy CRC 6AE85D13
Copy OK

Track 13
Filename C:mp3 ripsDjango Reinhardt & the Hot Club of France – HMV Sessions 1936-1948 flacDisc 113 – Exactly Like You (C).wav

Peak level 99.6 %
Track quality 100.0 %
Test CRC D3F6A0B3
Copy CRC D3F6A0B3
Copy OK

Track 14
Filename C:mp3 ripsDjango Reinhardt & the Hot Club of France – HMV Sessions 1936-1948 flacDisc 114 – Charleston (C).wav

Peak level 100.0 %
Track quality 100.0 %
Test CRC F1E7692E
Copy CRC F1E7692E
Copy OK

Track 15
Filename C:mp3 ripsDjango Reinhardt & the Hot Club of France – HMV Sessions 1936-1948 flacDisc 115 – You’re Driving Me Crazy (C).wav

Peak level 99.7 %
Track quality 100.0 %
Test CRC F646A251
Copy CRC F646A251
Copy OK

Track 16
Filename C:mp3 ripsDjango Reinhardt & the Hot Club of France – HMV Sessions 1936-1948 flacDisc 116 – Tears (C).wav

Peak level 99.9 %
Track quality 100.0 %
Test CRC F3794C68
Copy CRC F3794C68
Copy OK

Track 17
Filename C:mp3 ripsDjango Reinhardt & the Hot Club of France – HMV Sessions 1936-1948 flacDisc 117 – Solitude (C).wav

Peak level 89.2 %
Track quality 100.0 %
Test CRC D77CB352
Copy CRC D77CB352
Copy OK

Track 18
Filename C:mp3 ripsDjango Reinhardt & the Hot Club of France – HMV Sessions 1936-1948 flacDisc 118 – Hot Lips (D).wav

Peak level 90.3 %
Track quality 100.0 %
Test CRC 227BF25C
Copy CRC 227BF25C
Copy OK

Track 19
Filename C:mp3 ripsDjango Reinhardt & the Hot Club of France – HMV Sessions 1936-1948 flacDisc 119 – Ain’t Misbehavin’ (D).wav

Peak level 88.3 %
Track quality 100.0 %
Test CRC 4DCDA932
Copy CRC 4DCDA932
Copy OK

No errors occured

End of status report

EAC log CD2
EAC extraction logfile from 6. August 2006, 9:25 for CD
Django Reinhardt & The Hot Club of France Quintet / HMV Sessions 1936-1948 (Disc 2)

Used drive : TDK CDRW522448UED Adapter: 2 ID: 2
Read mode : Secure with NO C2, accurate stream, disable cache
Read offset correction : 6
Overread into Lead-In and Lead-Out : No

Used output format : C:Program FilesFLACflac.exe (User Defined Encoder)
192 kBit/s
Additional command line options : -V -8 -T "artist=%a" -T "title=%t" -T "album=%g" -T "date=%y" -T "tracknumber=%n" -T "genre=%m" %s

Other options :
Fill up missing offset samples with silence : Yes
Delete leading and trailing silent blocks : No
Installed external ASPI interface

Track 1
Filename C:mp3 ripsDjango Reinhardt & the Hot Club of France – HMV Sessions 1936-1948 flacDisc 21 – Rose Room (D).wav

Pre-gap length 0:00:02.00

Peak level 95.5 %
Track quality 100.0 %
Test CRC F3C63B04
Copy CRC F3C63B04
Copy OK

Track 2
Filename C:mp3 ripsDjango Reinhardt & the Hot Club of France – HMV Sessions 1936-1948 flacDisc 22 – Body And Soul (D).wav

Peak level 86.8 %
Track quality 100.0 %
Test CRC 5F7BE35A
Copy CRC 5F7BE35A
Copy OK

Track 3
Filename C:mp3 ripsDjango Reinhardt & the Hot Club of France – HMV Sessions 1936-1948 flacDisc 23 – When Day Is Done (D).wav

Peak level 85.2 %
Track quality 100.0 %
Test CRC 928A0CD4
Copy CRC 928A0CD4
Copy OK

Track 4
Filename C:mp3 ripsDjango Reinhardt & the Hot Club of France – HMV Sessions 1936-1948 flacDisc 24 – Runnin’ Wild (E).wav

Peak level 85.5 %
Track quality 100.0 %
Test CRC 9CD2D9E3
Copy CRC 9CD2D9E3
Copy OK

Track 5
Filename C:mp3 ripsDjango Reinhardt & the Hot Club of France – HMV Sessions 1936-1948 flacDisc 25 – Chicago (E).wav

Peak level 87.2 %
Track quality 100.0 %
Test CRC 01E6304C
Copy CRC 01E6304C
Copy OK

Track 6
Filename C:mp3 ripsDjango Reinhardt & the Hot Club of France – HMV Sessions 1936-1948 flacDisc 26 – Lieberstraum No. 3 (E).wav

Peak level 91.3 %
Track quality 99.9 %
Test CRC DB9D4F3F
Copy CRC DB9D4F3F
Copy OK

Track 7
Filename C:mp3 ripsDjango Reinhardt & the Hot Club of France – HMV Sessions 1936-1948 flacDisc 27 – Miss Annabelle Lee (E).wav

Peak level 89.8 %
Track quality 100.0 %
Test CRC 7E94E63D
Copy CRC 7E94E63D
Copy OK

Track 8
Filename C:mp3 ripsDjango Reinhardt & the Hot Club of France – HMV Sessions 1936-1948 flacDisc 28 – A Little Love, A Little Kiss (E).wav

Peak level 93.4 %
Track quality 100.0 %
Test CRC 10B86E54
Copy CRC 10B86E54
Copy OK

Track 9
Filename C:mp3 ripsDjango Reinhardt & the Hot Club of France – HMV Sessions 1936-1948 flacDisc 29 – Mystery Pacific (E).wav

Peak level 83.4 %
Track quality 100.0 %
Test CRC B52C0DE1
Copy CRC B52C0DE1
Copy OK

Track 10
Filename C:mp3 ripsDjango Reinhardt & the Hot Club of France – HMV Sessions 1936-1948 flacDisc 210 – In A Sentimental Mood (E).wav

Peak level 83.9 %
Track quality 99.9 %
Test CRC 9455EA20
Copy CRC 9455EA20
Copy OK

Track 11
Filename C:mp3 ripsDjango Reinhardt & the Hot Club of France – HMV Sessions 1936-1948 flacDisc 211 – The Sheik of Araby (F).wav

Peak level 90.4 %
Track quality 99.9 %
Test CRC 251699C0
Copy CRC 251699C0
Copy OK

Track 12
Filename C:mp3 ripsDjango Reinhardt & the Hot Club of France – HMV Sessions 1936-1948 flacDisc 212 – I’ve Found A New Baby (F).wav

Peak level 95.9 %
Track quality 100.0 %
Test CRC AA3A51E6
Copy CRC AA3A51E6
Copy OK

Track 13
Filename C:mp3 ripsDjango Reinhardt & the Hot Club of France – HMV Sessions 1936-1948 flacDisc 213 – Alabama Bound (F).wav

Peak level 89.6 %
Track quality 99.9 %
Test CRC 9802A5BB
Copy CRC 9802A5BB
Copy OK

Track 14
Filename C:mp3 ripsDjango Reinhardt & the Hot Club of France – HMV Sessions 1936-1948 flacDisc 214 – Improvisation (F).wav

Peak level 82.3 %
Track quality 99.9 %
Test CRC 79C4AF95
Copy CRC 79C4AF95
Copy OK

Track 15
Filename C:mp3 ripsDjango Reinhardt & the Hot Club of France – HMV Sessions 1936-1948 flacDisc 215 – Parfum (F).wav

Peak level 93.4 %
Track quality 100.0 %
Test CRC EC3B3335
Copy CRC EC3B3335
Copy OK

Track 16
Filename C:mp3 ripsDjango Reinhardt & the Hot Club of France – HMV Sessions 1936-1948 flacDisc 216 – St. Louis Blues (G).wav

Peak level 90.4 %
Track quality 100.0 %
Test CRC FF5DE070
Copy CRC FF5DE070
Copy OK

Track 17
Filename C:mp3 ripsDjango Reinhardt & the Hot Club of France – HMV Sessions 1936-1948 flacDisc 217 – Bouncin’ Around (G).wav

Peak level 78.1 %
Track quality 100.0 %
Test CRC C1C4131E
Copy CRC C1C4131E
Copy OK

Track 18
Filename C:mp3 ripsDjango Reinhardt & the Hot Club of France – HMV Sessions 1936-1948 flacDisc 218 – I’ve Found A New Baby (H).wav

Peak level 83.0 %
Track quality 100.0 %
Test CRC 2FDEED43
Copy CRC 2FDEED43
Copy OK

Track 19
Filename C:mp3 ripsDjango Reinhardt & the Hot Club of France – HMV Sessions 1936-1948 flacDisc 219 – Bricktop (H).wav

Peak level 99.0 %
Track quality 99.9 %
Test CRC 9AC144BC
Copy CRC 9AC144BC
Copy OK

Track 20
Filename C:mp3 ripsDjango Reinhardt & the Hot Club of France – HMV Sessions 1936-1948 flacDisc 220 – Speevey (I).wav

Peak level 100.0 %
Track quality 99.9 %
Test CRC B7579482
Copy CRC B7579482
Copy OK

No errors occured

End of status report

EAC log CD3
EAC extraction logfile from 6. August 2006, 10:25 for CD
Django Reinhardt & The Hot Club of France Quintet / HMV Sessions 1936-1948 (Disc 3)

Used drive : TDK CDRW522448UED Adapter: 2 ID: 2
Read mode : Secure with NO C2, accurate stream, disable cache
Read offset correction : 6
Overread into Lead-In and Lead-Out : No

Used output format : C:Program FilesFLACflac.exe (User Defined Encoder)
192 kBit/s
Additional command line options : -V -8 -T "artist=%a" -T "title=%t" -T "album=%g" -T "date=%y" -T "tracknumber=%n" -T "genre=%m" %s

Other options :
Fill up missing offset samples with silence : Yes
Delete leading and trailing silent blocks : No
Installed external ASPI interface

Track 1
Filename C:mp3 ripsDjango Reinhardt & the Hot Club of France – HMV Sessions 1936-1948 flacDisc 31 – Minor Swing (I).wav

Pre-gap length 0:00:02.00

Peak level 83.5 %
Track quality 100.0 %
Test CRC AA8498E7
Copy CRC AA8498E7
Copy OK

Track 2
Filename C:mp3 ripsDjango Reinhardt & the Hot Club of France – HMV Sessions 1936-1948 flacDisc 32 – Viper’s Dream (I).wav

Peak level 87.0 %
Track quality 100.0 %
Test CRC 331BB646
Copy CRC 331BB646
Copy OK

Track 3
Filename C:mp3 ripsDjango Reinhardt & the Hot Club of France – HMV Sessions 1936-1948 flacDisc 33 – Swingin’ With Django (J).wav

Peak level 81.2 %
Track quality 100.0 %
Test CRC A36D71AA
Copy CRC A36D71AA
Copy OK

Track 4
Filename C:mp3 ripsDjango Reinhardt & the Hot Club of France – HMV Sessions 1936-1948 flacDisc 34 – Paramount Stomp (J).wav

Peak level 79.4 %
Track quality 100.0 %
Test CRC 77B52295
Copy CRC 77B52295
Copy OK

Track 5
Filename C:mp3 ripsDjango Reinhardt & the Hot Club of France – HMV Sessions 1936-1948 flacDisc 35 – Bolero (K).wav

Peak level 100.0 %
Track quality 100.0 %
Test CRC 43B93D22
Copy CRC 43B93D22
Copy OK

Track 6
Filename C:mp3 ripsDjango Reinhardt & the Hot Club of France – HMV Sessions 1936-1948 flacDisc 36 – Bolero (alt tk) (K).wav

Peak level 92.6 %
Track quality 100.0 %
Test CRC 90FEED28
Copy CRC 90FEED28
Copy OK

Track 7
Filename C:mp3 ripsDjango Reinhardt & the Hot Club of France – HMV Sessions 1936-1948 flacDisc 37 – Mabel (alt tk) (K).wav

Peak level 92.1 %
Track quality 100.0 %
Test CRC 60C8DC69
Copy CRC 60C8DC69
Copy OK

Track 8
Filename C:mp3 ripsDjango Reinhardt & the Hot Club of France – HMV Sessions 1936-1948 flacDisc 38 – Mabel (K).wav

Peak level 93.1 %
Track quality 100.0 %
Test CRC B34BF36B
Copy CRC B34BF36B
Copy OK

Track 9
Filename C:mp3 ripsDjango Reinhardt & the Hot Club of France – HMV Sessions 1936-1948 flacDisc 39 – My Serenade (K).wav

Peak level 87.9 %
Track quality 100.0 %
Test CRC 5164FF82
Copy CRC 5164FF82
Copy OK

Track 10
Filename C:mp3 ripsDjango Reinhardt & the Hot Club of France – HMV Sessions 1936-1948 flacDisc 310 – You Rascal You (L).wav

Peak level 97.0 %
Track quality 99.9 %
Test CRC 02E4BA80
Copy CRC 02E4BA80
Copy OK

Track 11
Filename C:mp3 ripsDjango Reinhardt & the Hot Club of France – HMV Sessions 1936-1948 flacDisc 311 – Stephen’s Blues (L).wav

Peak level 95.9 %
Track quality 100.0 %
Test CRC 25C2D75C
Copy CRC 25C2D75C
Copy OK

Track 12
Filename C:mp3 ripsDjango Reinhardt & the Hot Club of France – HMV Sessions 1936-1948 flacDisc 312 – Sugar (L).wav

Peak level 88.2 %
Track quality 99.9 %
Test CRC BB99B4A4
Copy CRC BB99B4A4
Copy OK

Track 13
Filename C:mp3 ripsDjango Reinhardt & the Hot Club of France – HMV Sessions 1936-1948 flacDisc 313 – Sweet Georgia Brown (L).wav

Peak level 100.0 %
Track quality 100.0 %
Test CRC 092E96FA
Copy CRC 092E96FA
Copy OK

Track 14
Filename C:mp3 ripsDjango Reinhardt & the Hot Club of France – HMV Sessions 1936-1948 flacDisc 314 – Tea For Two (L).wav

Peak level 98.4 %
Track quality 100.0 %
Test CRC FD1901D0
Copy CRC FD1901D0
Copy OK

Track 15
Filename C:mp3 ripsDjango Reinhardt & the Hot Club of France – HMV Sessions 1936-1948 flacDisc 315 – Stockholm (M).wav

Peak level 85.7 %
Track quality 100.0 %
Test CRC 3619FF10
Copy CRC 3619FF10
Copy OK

Track 16
Filename C:mp3 ripsDjango Reinhardt & the Hot Club of France – HMV Sessions 1936-1948 flacDisc 316 – Younger Generation (M).wav

Peak level 91.7 %
Track quality 100.0 %
Test CRC 34A48BFA
Copy CRC 34A48BFA
Copy OK

Track 17
Filename C:mp3 ripsDjango Reinhardt & the Hot Club of France – HMV Sessions 1936-1948 flacDisc 317 – I’ll See You In My Dreams (M).wav

Peak level 81.0 %
Track quality 100.0 %
Test CRC F94F5216
Copy CRC F94F5216
Copy OK

Track 18
Filename C:mp3 ripsDjango Reinhardt & the Hot Club of France – HMV Sessions 1936-1948 flacDisc 318 – Echoes Of Spain (M).wav

Peak level 90.2 %
Track quality 100.0 %
Test CRC 1B09D17A
Copy CRC 1B09D17A
Copy OK

Track 19
Filename C:mp3 ripsDjango Reinhardt & the Hot Club of France – HMV Sessions 1936-1948 flacDisc 319 – Out Of Nowhere (M).wav

Peak level 86.4 %
Track quality 100.0 %
Test CRC 958A12CB
Copy CRC 958A12CB
Copy OK

Track 20
Filename C:mp3 ripsDjango Reinhardt & the Hot Club of France – HMV Sessions 1936-1948 flacDisc 320 – I Can’t Give You Anything But Love (M).wav

Peak level 86.5 %
Track quality 99.9 %
Test CRC 9B641968
Copy CRC 9B641968
Copy OK

Track 21
Filename C:mp3 ripsDjango Reinhardt & the Hot Club of France – HMV Sessions 1936-1948 flacDisc 321 – Naguine (M).wav

Peak level 85.5 %
Track quality 99.9 %
Test CRC 8D8172F7
Copy CRC 8D8172F7
Copy OK

No errors occured

End of status report

EAC log CD4
EAC extraction logfile from 6. August 2006, 15:59 for CD
Django Reinhardt & The Hot Club of France Quintet / HMV Sessions 1936-1948 (Disc 4)

Used drive : TDK CDRW522448UED Adapter: 2 ID: 2
Read mode : Secure with NO C2, accurate stream, disable cache
Read offset correction : 6
Overread into Lead-In and Lead-Out : No

Used output format : C:Program FilesFLACflac.exe (User Defined Encoder)
192 kBit/s
Additional command line options : -V -8 -T "artist=%a" -T "title=%t" -T "album=%g" -T "date=%y" -T "tracknumber=%n" -T "genre=%m" %s

Other options :
Fill up missing offset samples with silence : Yes
Delete leading and trailing silent blocks : No
Installed external ASPI interface

Track 1
Filename C:mp3 ripsDjango Reinhardt & the Hot Club of France – HMV Sessions 1936-1948 flacDisc 41 – Nuages (N).wav

Pre-gap length 0:00:02.00

Peak level 88.9 %
Track quality 100.0 %
Test CRC F55FED8E
Copy CRC F55FED8E
Copy OK

Track 2
Filename C:mp3 ripsDjango Reinhardt & the Hot Club of France – HMV Sessions 1936-1948 flacDisc 42 – Rhythm Futur (N).wav

Peak level 90.9 %
Track quality 100.0 %
Test CRC F95BF25E
Copy CRC F95BF25E
Copy OK

Track 3
Filename C:mp3 ripsDjango Reinhardt & the Hot Club of France – HMV Sessions 1936-1948 flacDisc 43 – Begin The Beguine (N).wav

Peak level 74.1 %
Track quality 100.0 %
Test CRC 0A8421B5
Copy CRC 0A8421B5
Copy OK

Track 4
Filename C:mp3 ripsDjango Reinhardt & the Hot Club of France – HMV Sessions 1936-1948 flacDisc 44 – Blues (N).wav

Peak level 86.4 %
Track quality 100.0 %
Test CRC 26D0165D
Copy CRC 26D0165D
Copy OK

Track 5
Filename C:mp3 ripsDjango Reinhardt & the Hot Club of France – HMV Sessions 1936-1948 flacDisc 45 – Coucou (N).wav

Peak level 90.7 %
Track quality 100.0 %
Test CRC 59F9BD30
Copy CRC 59F9BD30
Copy OK

Track 6
Filename C:mp3 ripsDjango Reinhardt & the Hot Club of France – HMV Sessions 1936-1948 flacDisc 46 – Indecision (Undecided) (N).wav

Peak level 75.6 %
Track quality 100.0 %
Test CRC 26319EDC
Copy CRC 26319EDC
Copy OK

Track 7
Filename C:mp3 ripsDjango Reinhardt & the Hot Club of France – HMV Sessions 1936-1948 flacDisc 47 – Swing 41 (O).wav

Peak level 87.6 %
Track quality 100.0 %
Test CRC C89E4325
Copy CRC C89E4325
Copy OK

Track 8
Filename C:mp3 ripsDjango Reinhardt & the Hot Club of France – HMV Sessions 1936-1948 flacDisc 48 – Nuages (O).wav

Peak level 86.5 %
Track quality 100.0 %
Test CRC A629A8A3
Copy CRC A629A8A3
Copy OK

Track 9
Filename C:mp3 ripsDjango Reinhardt & the Hot Club of France – HMV Sessions 1936-1948 flacDisc 49 – Pour Vous ( Exactly Like You) (O).wav

Peak level 99.8 %
Track quality 100.0 %
Test CRC AE8BD883
Copy CRC AE8BD883
Copy OK

Track 10
Filename C:mp3 ripsDjango Reinhardt & the Hot Club of France – HMV Sessions 1936-1948 flacDisc 410 – Fantaisie Sur Une Danse, Norvegienne (O).wav

Peak level 91.6 %
Track quality 100.0 %
Test CRC 4F9B2E52
Copy CRC 4F9B2E52
Copy OK

Track 11
Filename C:mp3 ripsDjango Reinhardt & the Hot Club of France – HMV Sessions 1936-1948 flacDisc 411 – Vendredi 13 (O).wav

Peak level 88.0 %
Track quality 100.0 %
Test CRC 7598BA3A
Copy CRC 7598BA3A
Copy OK

Track 12
Filename C:mp3 ripsDjango Reinhardt & the Hot Club of France – HMV Sessions 1936-1948 flacDisc 412 – Liebesfreud (O).wav

Peak level 90.1 %
Track quality 99.9 %
Test CRC CDECD0CB
Copy CRC CDECD0CB
Copy OK

Track 13
Filename C:mp3 ripsDjango Reinhardt & the Hot Club of France – HMV Sessions 1936-1948 flacDisc 413 – Mabel (O).wav

Peak level 92.5 %
Track quality 100.0 %
Test CRC 4BE33B4F
Copy CRC 4BE33B4F
Copy OK

Track 14
Filename C:mp3 ripsDjango Reinhardt & the Hot Club of France – HMV Sessions 1936-1948 flacDisc 414 – Pettis Mensonges (Little White Lies) (O).wav

Peak level 74.5 %
Track quality 100.0 %
Test CRC 73154A92
Copy CRC 73154A92
Copy OK

Track 15
Filename C:mp3 ripsDjango Reinhardt & the Hot Club of France – HMV Sessions 1936-1948 flacDisc 415 – Les Yeux Noirs (Dark Eyes) (O).wav

Peak level 78.7 %
Track quality 99.9 %
Test CRC 43EF92B6
Copy CRC 43EF92B6
Copy OK

Track 16
Filename C:mp3 ripsDjango Reinhardt & the Hot Club of France – HMV Sessions 1936-1948 flacDisc 416 – Sweet Sue, Just You (O).wav

Peak level 83.8 %
Track quality 100.0 %
Test CRC E9258611
Copy CRC E9258611
Copy OK

Track 17
Filename C:mp3 ripsDjango Reinhardt & the Hot Club of France – HMV Sessions 1936-1948 flacDisc 417 – Swing De Paris (P).wav

Peak level 99.0 %
Track quality 99.9 %
Test CRC 1335B9F0
Copy CRC 1335B9F0
Copy OK

Track 18
Filename C:mp3 ripsDjango Reinhardt & the Hot Club of France – HMV Sessions 1936-1948 flacDisc 418 – Oiseaux Des Iles (P).wav

Peak level 92.5 %
Track quality 100.0 %
Test CRC BB0CA858
Copy CRC BB0CA858
Copy OK

Track 19
Filename C:mp3 ripsDjango Reinhardt & the Hot Club of France – HMV Sessions 1936-1948 flacDisc 419 – All Of Me (P).wav

Peak level 83.8 %
Track quality 100.0 %
Test CRC FDAE3BED
Copy CRC FDAE3BED
Copy OK

No errors occured

End of status report

EAC log CD5
EAC extraction logfile from 6. August 2006, 17:59 for CD
Django Reinhardt & The Hot Club of France Quintet / HMV Sessions 1936-1948 (Disc 5)

Used drive : TDK CDRW522448UED Adapter: 2 ID: 2
Read mode : Secure with NO C2, accurate stream, disable cache
Read offset correction : 6
Overread into Lead-In and Lead-Out : No

Used output format : C:Program FilesFLACflac.exe (User Defined Encoder)
192 kBit/s
Additional command line options : -V -8 -T "artist=%a" -T "title=%t" -T "album=%g" -T "date=%y" -T "tracknumber=%n" -T "genre=%m" %s

Other options :
Fill up missing offset samples with silence : Yes
Delete leading and trailing silent blocks : No
Installed external ASPI interface

Track 1
Filename C:mp3 ripsDjango Reinhardt & the Hot Club of France – HMV Sessions 1936-1948 flacDisc 51 – Festival Swing (Q).wav

Pre-gap length 0:00:02.00

Peak level 97.8 %
Track quality 99.9 %
Test CRC 250C5CC1
Copy CRC 250C5CC1
Copy OK

Track 2
Filename C:mp3 ripsDjango Reinhardt & the Hot Club of France – HMV Sessions 1936-1948 flacDisc 52 – Dinette (R).wav

Peak level 99.9 %
Track quality 100.0 %
Test CRC F6D94DC9
Copy CRC F6D94DC9
Copy OK

Track 3
Filename C:mp3 ripsDjango Reinhardt & the Hot Club of France – HMV Sessions 1936-1948 flacDisc 53 – Crepuscule (R).wav

Peak level 86.8 %
Track quality 100.0 %
Test CRC C0E42377
Copy CRC C0E42377
Copy OK

Track 4
Filename C:mp3 ripsDjango Reinhardt & the Hot Club of France – HMV Sessions 1936-1948 flacDisc 54 – Swing 42 (R).wav

Peak level 85.8 %
Track quality 100.0 %
Test CRC E7D588A3
Copy CRC E7D588A3
Copy OK

Track 5
Filename C:mp3 ripsDjango Reinhardt & the Hot Club of France – HMV Sessions 1936-1948 flacDisc 55 – Festival Swing 1942, Part 2 (S).wav

Peak level 90.3 %
Track quality 100.0 %
Test CRC EFE4CEC8
Copy CRC EFE4CEC8
Copy OK

Track 6
Filename C:mp3 ripsDjango Reinhardt & the Hot Club of France – HMV Sessions 1936-1948 flacDisc 56 – Belleville (T).wav

Peak level 95.4 %
Track quality 100.0 %
Test CRC 5ED63D21
Copy CRC 5ED63D21
Copy OK

Track 7
Filename C:mp3 ripsDjango Reinhardt & the Hot Club of France – HMV Sessions 1936-1948 flacDisc 57 – Lentement Mademoiselle (T).wav

Peak level 99.9 %
Track quality 99.9 %
Test CRC B561BD17
Copy CRC B561BD17
Copy OK

Track 8
Filename C:mp3 ripsDjango Reinhardt & the Hot Club of France – HMV Sessions 1936-1948 flacDisc 58 – Douce Ambiance (U).wav

Peak level 95.5 %
Track quality 100.0 %
Test CRC D7D775DF
Copy CRC D7D775DF
Copy OK

Track 9
Filename C:mp3 ripsDjango Reinhardt & the Hot Club of France – HMV Sessions 1936-1948 flacDisc 59 – Manoir De Mes Reves (U).wav

Peak level 86.2 %
Track quality 100.0 %
Test CRC F3D710CE
Copy CRC F3D710CE
Copy OK

Track 10
Filename C:mp3 ripsDjango Reinhardt & the Hot Club of France – HMV Sessions 1936-1948 flacDisc 510 – Oui (U).wav

Peak level 90.3 %
Track quality 100.0 %
Test CRC 328F0813
Copy CRC 328F0813
Copy OK

Track 11
Filename C:mp3 ripsDjango Reinhardt & the Hot Club of France – HMV Sessions 1936-1948 flacDisc 511 – Cavalerie (U).wav

Peak level 90.9 %
Track quality 100.0 %
Test CRC F31B3946
Copy CRC F31B3946
Copy OK

Track 12
Filename C:mp3 ripsDjango Reinhardt & the Hot Club of France – HMV Sessions 1936-1948 flacDisc 512 – Fleur D’Ennui (V).wav

Peak level 75.2 %
Track quality 100.0 %
Test CRC 67BA5F3A
Copy CRC 67BA5F3A
Copy OK

Track 13
Filename C:mp3 ripsDjango Reinhardt & the Hot Club of France – HMV Sessions 1936-1948 flacDisc 513 – Blue Clair (V).wav

Peak level 92.4 %
Track quality 100.0 %
Test CRC 6ABDB72F
Copy CRC 6ABDB72F
Copy OK

Track 14
Filename C:mp3 ripsDjango Reinhardt & the Hot Club of France – HMV Sessions 1936-1948 flacDisc 514 – Improvisation No. 3 – Part I (V).wav

Peak level 89.2 %
Track quality 100.0 %
Test CRC E00E7F1F
Copy CRC E00E7F1F
Copy OK

Track 15
Filename C:mp3 ripsDjango Reinhardt & the Hot Club of France – HMV Sessions 1936-1948 flacDisc 515 – Improvisation No. 3- Part II (V).wav

Peak level 93.0 %
Track quality 100.0 %
Test CRC A1338A8B
Copy CRC A1338A8B
Copy OK

Track 16
Filename C:mp3 ripsDjango Reinhardt & the Hot Club of France – HMV Sessions 1936-1948 flacDisc 516 – Coquette (W).wav

Peak level 85.2 %
Track quality 100.0 %
Test CRC 5E106FFB
Copy CRC 5E106FFB
Copy OK

Track 17
Filename C:mp3 ripsDjango Reinhardt & the Hot Club of France – HMV Sessions 1936-1948 flacDisc 517 – Django’s Tiger (W).wav

Peak level 99.2 %
Track quality 100.0 %
Test CRC C7E7AF52
Copy CRC C7E7AF52
Copy OK

Track 18
Filename C:mp3 ripsDjango Reinhardt & the Hot Club of France – HMV Sessions 1936-1948 flacDisc 518 – Embraceable You (W).wav

Peak level 84.9 %
Track quality 100.0 %
Test CRC 4CB16E46
Copy CRC 4CB16E46
Copy OK

Track 19
Filename C:mp3 ripsDjango Reinhardt & the Hot Club of France – HMV Sessions 1936-1948 flacDisc 519 – Echoes Of France (La Marseillaise) (W).wav

Peak level 87.1 %
Track quality 100.0 %
Test CRC F3AC17B8
Copy CRC F3AC17B8
Copy OK

No errors occured

End of status report

EAC log CD6
EAC extraction logfile from 6. August 2006, 19:17 for CD
Django Reinhardt & The Hot Club of France Quintet / HMV Sessions 1936-1948 (Disc 6)

Used drive : TDK CDRW522448UED Adapter: 2 ID: 2
Read mode : Secure with NO C2, accurate stream, disable cache
Read offset correction : 6
Overread into Lead-In and Lead-Out : No

Used output format : C:Program FilesFLACflac.exe (User Defined Encoder)
192 kBit/s
Additional command line options : -V -8 -T "artist=%a" -T "title=%t" -T "album=%g" -T "date=%y" -T "tracknumber=%n" -T "genre=%m" %s

Other options :
Fill up missing offset samples with silence : Yes
Delete leading and trailing silent blocks : No
Installed external ASPI interface

Track 1
Filename C:mp3 ripsDjango Reinhardt & the Hot Club of France – HMV Sessions 1936-1948 flacDisc 61 – Swingtime In Springtime (X).wav

Pre-gap length 0:00:02.00

Peak level 86.1 %
Track quality 100.0 %
Test CRC 557F6861
Copy CRC 557F6861
Copy OK

Track 2
Filename C:mp3 ripsDjango Reinhardt & the Hot Club of France – HMV Sessions 1936-1948 flacDisc 62 – Yours And Mine (X).wav

Peak level 93.1 %
Track quality 100.0 %
Test CRC 2B704B11
Copy CRC 2B704B11
Copy OK

Track 3
Filename C:mp3 ripsDjango Reinhardt & the Hot Club of France – HMV Sessions 1936-1948 flacDisc 63 – On The Sunny Side Of The Street (X).wav

Peak level 99.9 %
Track quality 99.9 %
Test CRC 99A29F84
Copy CRC 99A29F84
Copy OK

Track 4
Filename C:mp3 ripsDjango Reinhardt & the Hot Club of France – HMV Sessions 1936-1948 flacDisc 64 – I Won’t Dance (X).wav

Peak level 96.4 %
Track quality 100.0 %
Test CRC 7B38F2DE
Copy CRC 7B38F2DE
Copy OK

Track 5
Filename C:mp3 ripsDjango Reinhardt & the Hot Club of France – HMV Sessions 1936-1948 flacDisc 65 – R-Vingt-Six (Y).wav

Peak level 89.7 %
Track quality 100.0 %
Test CRC 90792198
Copy CRC 90792198
Copy OK

Track 6
Filename C:mp3 ripsDjango Reinhardt & the Hot Club of France – HMV Sessions 1936-1948 flacDisc 66 – How High The Moon (Y).wav

Peak level 75.4 %
Track quality 100.0 %
Test CRC 78F3BACF
Copy CRC 78F3BACF
Copy OK

Track 7
Filename C:mp3 ripsDjango Reinhardt & the Hot Club of France – HMV Sessions 1936-1948 flacDisc 67 – Lover Man (Y).wav

Peak level 82.6 %
Track quality 99.9 %
Test CRC 7358FE5E
Copy CRC 7358FE5E
Copy OK

Track 8
Filename C:mp3 ripsDjango Reinhardt & the Hot Club of France – HMV Sessions 1936-1948 flacDisc 68 – Blue Lou (Y).wav

Peak level 82.1 %
Track quality 100.0 %
Test CRC EFC83EE3
Copy CRC EFC83EE3
Copy OK

Track 9
Filename C:mp3 ripsDjango Reinhardt & the Hot Club of France – HMV Sessions 1936-1948 flacDisc 69 – Blues (Y).wav

Peak level 86.2 %
Track quality 100.0 %
Test CRC 2C8457CF
Copy CRC 2C8457CF
Copy OK

Track 10
Filename C:mp3 ripsDjango Reinhardt & the Hot Club of France – HMV Sessions 1936-1948 flacDisc 610 – What Is This Thing Called Love (Z).wav

Peak level 88.0 %
Track quality 100.0 %
Test CRC C251BF6B
Copy CRC C251BF6B
Copy OK

Track 11
Filename C:mp3 ripsDjango Reinhardt & the Hot Club of France – HMV Sessions 1936-1948 flacDisc 611 – Ol’ Man River (Z).wav

Peak level 84.9 %
Track quality 100.0 %
Test CRC 4EF399CA
Copy CRC 4EF399CA
Copy OK

Track 12
Filename C:mp3 ripsDjango Reinhardt & the Hot Club of France – HMV Sessions 1936-1948 flacDisc 612 – Si Tu Savais (Z).wav

Peak level 98.8 %
Track quality 100.0 %
Test CRC 45FB5C7D
Copy CRC 45FB5C7D
Copy OK

Track 13
Filename C:mp3 ripsDjango Reinhardt & the Hot Club of France – HMV Sessions 1936-1948 flacDisc 613 – Eveline (Z).wav

Peak level 96.2 %
Track quality 100.0 %
Test CRC BA00338C
Copy CRC BA00338C
Copy OK

Track 14
Filename C:mp3 ripsDjango Reinhardt & the Hot Club of France – HMV Sessions 1936-1948 flacDisc 614 – Diminushing (Z).wav

Peak level 99.4 %
Track quality 100.0 %
Test CRC 0E95D44A
Copy CRC 0E95D44A
Copy OK

Track 15
Filename C:mp3 ripsDjango Reinhardt & the Hot Club of France – HMV Sessions 1936-1948 flacDisc 615 – Mike (AA).wav

Peak level 89.3 %
Track quality 100.0 %
Test CRC F8DF310A
Copy CRC F8DF310A
Copy OK

Track 16
Filename C:mp3 ripsDjango Reinhardt & the Hot Club of France – HMV Sessions 1936-1948 flacDisc 616 – Oh, Lady Be Good (AA).wav

Peak level 89.0 %
Track quality 100.0 %
Test CRC D52C51C3
Copy CRC D52C51C3
Copy OK

Track 17
Filename C:mp3 ripsDjango Reinhardt & the Hot Club of France – HMV Sessions 1936-1948 flacDisc 617 – Festival 48 (AA).wav

Peak level 91.4 %
Track quality 100.0 %
Test CRC AA5A2627
Copy CRC AA5A2627
Copy OK

Track 18
Filename C:mp3 ripsDjango Reinhardt & the Hot Club of France – HMV Sessions 1936-1948 flacDisc 618 – Fantaisie (AA).wav

Peak level 91.0 %
Track quality 100.0 %
Test CRC D869390D
Copy CRC D869390D
Copy OK

Track 19
Filename C:mp3 ripsDjango Reinhardt & the Hot Club of France – HMV Sessions 1936-1948 flacDisc 619 – Bricktop (AA).wav

Peak level 86.3 %
Track quality 100.0 %
Test CRC D5D09FC5
Copy CRC D5D09FC5
Copy OK

Track 20
Filename C:mp3 ripsDjango Reinhardt & the Hot Club of France – HMV Sessions 1936-1948 flacDisc 620 – Just For Fun (AA).wav

Peak level 95.6 %
Track quality 100.0 %
Test CRC EDD9F8E2
Copy CRC EDD9F8E2
Copy OK

Track 21
Filename C:mp3 ripsDjango Reinhardt & the Hot Club of France – HMV Sessions 1936-1948 flacDisc 621 – To Each His Own,Symphonie (AA).wav

Peak level 93.1 %
Track quality 100.0 %
Test CRC 0ED8FED4
Copy CRC 0ED8FED4
Copy OK

No errors occured

End of status report

Django Reinhardt - The Complete Django Reinhardt and Quintet of the Hot Club of France Swing/HMV Sessions 1936-1948 (1999)

Django Reinhardt - The Complete Django Reinhardt and Quintet of the Hot Club of France Swing/HMV Sessions 1936-1948 (1999)

Django Reinhardt - The Complete Django Reinhardt and Quintet of the Hot Club of France Swing/HMV Sessions 1936-1948 (1999)

===

Django Reinhardt – The Complete Django Reinhardt and Quintet of the Hot Club of France Swing/HMV Sessions 1936-1948 (1999) Download, Warez, DDL, Free, Full Album, Torrent, Legal.

Download