Dizzy Gillespie – A Musical Safari: Live At The 1961 Monterey Jazz Festival (2015) {Solar Records 4569957}

Download
Dizzy Gillespie - A Musical Safari: Live At The 1961 Monterey Jazz Festival (2015) {Solar Records 4569957}

Dizzy Gillespie – A Musical Safari: Live At The 1961 Monterey Jazz Festival (2015) {Solar Records 4569957}
EAC rip (secure mode) | FLAC (tracks)+CUE+LOG -> 501 Mb | MP3 @320 -> 186 Mb
Full Artwork @ 600 dpi (png) -> 135 Mb | 5% repair rar | 24bit remastered
© 1961, 2015 Solar Records | 4569957
Jazz / Afro-Cuban Jazz / Bop / Bossa Nova / Trumpet

This edition presents, for the first time ever on CD, Dizzy Gillespie’s complete performance at the 1961 Monterey Jazz Festival. While humorously introduced by Diz as “A Musical Safari”, the set is a mixture of the repertoire the quintet was playing during that period, including an excursion into the realm of bossa nova.

The quintet features the wonderful Leo Wright and Argentinean pianist Lalo Schifrin, as well as singer Joe Carroll on one track.

Dizzy Gillespie - A Musical Safari: Live At The 1961 Monterey Jazz Festival (2015) {Solar Records 4569957}

PERSONNEL:

DIZZY GILLESPIE, trumpet
LEO WRIGHT, alto sax & flute
LALO SCHIFRIN, piano
BOB CUNNINGHAM, bass
CHUCK LAMPKIN, drums
JOE CARROLL, vocals (on 5 only)

Live at the Monterey Jazz Festival, Monterey, California, September 23, 1961.

[8-11] BONUS TRACKS: Same personnel (omit Joe Carroll).
Live at the Museum of Modern Art, New York, February 9, 1961.

TRACKS:

01 Announcements by Duke Ellington & Dizzy Gillespie (*)
02 DESAFINADO (*)
03 LORRAINE (*)
04 LONG, LONG SUMMER (*)
05 OO-POP-A-DA (*)
06 PAU DE ARARA (*)
07 KUSH (*)
08 KUSH #2 (**)
09 SALT PEANUTS (**)
10 A NIGHT IN TUNISIA (**)
11 THE MOOCHE (**)

* – on CD for the first time ever!
** – bonus tracks

EAC log
Exact Audio Copy V1.0 beta 3 from 29. August 2011

EAC extraction logfile from 16. February 2017, 18:47

Dizzy Gillespie / A Musical Safari

Used drive : PLEXTOR BD-R PX-B950SA Adapter: 3 ID: 0

Read mode : Secure
Utilize accurate stream : Yes
Defeat audio cache : Yes
Make use of C2 pointers : No

Read offset correction : 6
Overread into Lead-In and Lead-Out : No
Fill up missing offset samples with silence : Yes
Delete leading and trailing silent blocks : No
Null samples used in CRC calculations : Yes
Used interface : Native Win32 interface for Win NT & 2000
Gap handling : Appended to previous track

Used output format : User Defined Encoder
Selected bitrate : 1024 kBit/s
Quality : High
Add ID3 tag : No
Command line compressor : C:Program Files (x86)Exact Audio CopyFlacflac.exe
Additional command line options : -8 -V -T "ARTIST=%artist%" -T "TITLE=%title%" -T "ALBUM=%albumtitle%" -T "DATE=%year%" -T "TRACKNUMBER=%tracknr%" -T "TOTALTRACKS=%numtracks%" -T "GENRE=%genre%" -T "ALBUMARTIST=%albumartist%" -T "ALBUM ARTIST=%albumartist%" -T "COMMENT=EAC Secure Mode, Test & Copy, AccurateRip, FLAC -8" %source%

TOC of the extracted CD

Track | Start | Length | Start sector | End sector
––––––––––––––––––––––––––––-
1 | 0:00.00 | 2:16.62 | 0 | 10261
2 | 2:16.62 | 3:35.05 | 10262 | 26391
3 | 5:51.67 | 3:50.41 | 26392 | 43682
4 | 9:42.33 | 8:47.71 | 43683 | 83278
5 | 18:30.29 | 5:39.72 | 83279 | 108775
6 | 24:10.26 | 8:56.04 | 108776 | 148979
7 | 33:06.30 | 9:24.08 | 148980 | 191287
8 | 42:30.38 | 11:02.45 | 191288 | 240982
9 | 53:33.08 | 7:09.16 | 240983 | 273173
10 | 60:42.24 | 6:46.25 | 273174 | 303648
11 | 67:28.49 | 11:37.29 | 303649 | 355952

Track 1

Filename Z:Dizzy Gillespie – A Musical Safari (1961) [FLAC] {Solar Records, limited edition}1 – Announcements by Duke Ellington & Dizzy Gillespie.wav

Pre-gap length 0:00:02.00

Peak level 83.8 %
Extraction speed 4.3 X
Track quality 100.0 %
Test CRC ED7CC5B6
Copy CRC ED7CC5B6
Track not present in AccurateRip database
Copy OK

Track 2

Filename Z:Dizzy Gillespie – A Musical Safari (1961) [FLAC] {Solar Records, limited edition}2 – Desafinado.wav

Peak level 83.8 %
Extraction speed 5.1 X
Track quality 100.0 %
Test CRC 4EEE0755
Copy CRC 4EEE0755
Track not present in AccurateRip database
Copy OK

Track 3

Filename Z:Dizzy Gillespie – A Musical Safari (1961) [FLAC] {Solar Records, limited edition}3 – Lorraine.wav

Peak level 83.8 %
Extraction speed 5.6 X
Track quality 100.0 %
Test CRC 136F8DB9
Copy CRC 136F8DB9
Track not present in AccurateRip database
Copy OK

Track 4

Filename Z:Dizzy Gillespie – A Musical Safari (1961) [FLAC] {Solar Records, limited edition}4 – Long, Long Summer.wav

Peak level 83.8 %
Extraction speed 6.7 X
Track quality 100.0 %
Test CRC 9E5CC47B
Copy CRC 9E5CC47B
Track not present in AccurateRip database
Copy OK

Track 5

Filename Z:Dizzy Gillespie – A Musical Safari (1961) [FLAC] {Solar Records, limited edition}5 – Oo-Pop-A-Da.wav

Peak level 83.8 %
Extraction speed 6.1 X
Track quality 99.9 %
Test CRC 242DF8D0
Copy CRC 242DF8D0
Track not present in AccurateRip database
Copy OK

Track 6

Filename Z:Dizzy Gillespie – A Musical Safari (1961) [FLAC] {Solar Records, limited edition}6 – Pau de Arara.wav

Peak level 83.8 %
Extraction speed 7.4 X
Track quality 100.0 %
Test CRC 78035FEC
Copy CRC 78035FEC
Track not present in AccurateRip database
Copy OK

Track 7

Filename Z:Dizzy Gillespie – A Musical Safari (1961) [FLAC] {Solar Records, limited edition}7 – Kush.wav

Peak level 83.8 %
Extraction speed 8.7 X
Track quality 100.0 %
Test CRC F901E6A3
Copy CRC F901E6A3
Track not present in AccurateRip database
Copy OK

Track 8

Filename Z:Dizzy Gillespie – A Musical Safari (1961) [FLAC] {Solar Records, limited edition}8 – Kush No2.wav

Pre-gap length 0:00:03.00

Peak level 75.1 %
Extraction speed 9.5 X
Track quality 100.0 %
Test CRC B67C95D6
Copy CRC B67C95D6
Track not present in AccurateRip database
Copy OK

Track 9

Filename Z:Dizzy Gillespie – A Musical Safari (1961) [FLAC] {Solar Records, limited edition}9 – Salt Peanuts.wav

Pre-gap length 0:00:01.00

Peak level 75.1 %
Extraction speed 9.8 X
Track quality 100.0 %
Test CRC 949EA834
Copy CRC 949EA834
Track not present in AccurateRip database
Copy OK

Track 10

Filename Z:Dizzy Gillespie – A Musical Safari (1961) [FLAC] {Solar Records, limited edition}10 – A Night in Tunisia.wav

Pre-gap length 0:00:01.00

Peak level 75.1 %
Extraction speed 8.9 X
Track quality 99.9 %
Test CRC 16E19EFC
Copy CRC 16E19EFC
Track not present in AccurateRip database
Copy OK

Track 11

Filename Z:Dizzy Gillespie – A Musical Safari (1961) [FLAC] {Solar Records, limited edition}11 – The Mooche.wav

Peak level 75.1 %
Extraction speed 11.1 X
Track quality 100.0 %
Test CRC 71269CB6
Copy CRC 71269CB6
Track not present in AccurateRip database
Copy OK

None of the tracks are present in the AccurateRip database

No errors occurred

End of status report

–– CUETools DB Plugin V2.1.3

[CTDB TOCID: 4dKsOmakux53SPi6oyw6RSboBaE-] found, Submit result: 4dKsOmakux53SPi6oyw6RSboBaE- has been confirmed
[1acada70] (2/2) Accurately ripped

==== Log checksum 3991D69A311BD5DDBA532C9DBA7E3D263F5DE2EB78F16436FF0E9C47B83C4604 ====

Dizzy Gillespie - A Musical Safari: Live At The 1961 Monterey Jazz Festival (2015) {Solar Records 4569957}

Dizzy Gillespie - A Musical Safari: Live At The 1961 Monterey Jazz Festival (2015) {Solar Records 4569957}

===

Dizzy Gillespie – A Musical Safari: Live At The 1961 Monterey Jazz Festival (2015) {Solar Records 4569957} Download, Warez, DDL, Free, Full Album, Torrent, Legal.

Download