Diamanda Galás – 3 Albums (1982-1992)

Download
Diamanda Galás - 3 Albums (1982-1992)

Diamanda Galás – 3 Albums (1982-1992)
EAC Rip | FLAC (tracks+.cue, log) ~ 570 Mb | 01:48:20 | Covers
Experimental, Avantgarde, Vocal | Country: USA | Label: Mute

Diamanda Galás (born August 29, 1955) is an American avant-garde soprano, composer, pianist, organist, performance artist, and painter. Galás has been described as "capable of the most unnerving vocal terror". Her works largely concentrate on the topics of AIDS, mental illness, despair, injustice, condemnation, and loss of dignity. She has worked with many avant-garde composers, including Iannis Xenakis, Vinko Globokar and John Zorn, and also collaborated with jazz musician Bobby Bradford, and John Paul Jones, former bassist of Led Zeppelin.

Galás was born and raised in San Diego, California, to a Greek mother, Georgiana, and an Egyptian father, James, who were Greek Orthodox. She began playing the piano at the age of 3 under the tutelage of her father, also learning to play the cello and violin, and studied a wide range of musical forms. At 13 Galás began playing gigs in San Diego with her father’s band, performing Greek and Arabic music, and at 14 she made her orchestral debut with the San Diego Symphony as the soloist for Beethoven’s Piano Concerto No. 1.

After moving to Europe, Galas made her solo performance debut at the Festival d’Avignon, in France, in 1973, performing the lead in the opera Un Jour comme un autre, by composer Vinko Globokar, based upon Amnesty International’s documentation of the arrest and torture of a Turkish woman for alleged treason. Her first album was The Litanies of Satan, released in 1982. Her second album, Diamanda Galas, was released in 1984.

Her work first garnered widespread attention with The Masque of the Red Death, an operatic trilogy which includes The Divine Punishment, Saint of the Pit and You Must Be Certain of the Devil. In it, she details the suffering of people with AIDS. Shortly after the recording of the trilogy’s first volume began, her brother, playwright Philip-Dimitri Galás, became sick with the disease, which goaded Galás to redouble her efforts. Philip-Dimitri Galás died in 1986, just before the completion of the trilogy.

Diamanda Galás - 3 Albums (1982-1992)

Diamanda Galás – The Litanies Of Satan (1982)
EAC Rip | FLAC (tracks+.cue, log) ~ 171.60 Mb | 29:52 | Cover
Avant-garde | Country: USA | Label: Mute (ISO1)

Track List:
1. "The Litanies of Satan" (12:04)
2. "Wild Women With Steak Knives (The Homicidal Love Song for Solo Scream)" (17:48)

EAC log
Exact Audio Copy V1.0 beta 6 from 9. April 2015

EAC extraction logfile from 29. March 2017, 0:00

Diamanda Galás / The Litanies of Satan

Used drive : ATAPI iHAS124 B Adapter: 1 ID: 0

Read mode : Secure
Utilize accurate stream : Yes
Defeat audio cache : Yes
Make use of C2 pointers : No

Read offset correction : 6
Overread into Lead-In and Lead-Out : No
Fill up missing offset samples with silence : Yes
Delete leading and trailing silent blocks : No
Null samples used in CRC calculations : Yes
Used interface : Native Win32 interface for Win NT & 2000
Gap handling : Appended to previous track

Used output format : User Defined Encoder
Selected bitrate : 1024 kBit/s
Quality : High
Add ID3 tag : No
Command line compressor : C:Program Files (x86)Exact Audio CopyFLACFLAC.EXE
Additional command line options : -8 -e -p -V -T "ARTIST=%artist%" -T "TITLE=%title%" -T "ALBUM=%albumtitle%" -T "DATE=%year%" -T "TRACKNUMBER=%tracknr%" -T "GENRE=%genre%" -T "PERFORMER=%albuminterpret%" -T "COMPOSER=%composer%" %haslyrics%–tag-from-file=LYRICS="%lyricsfile%"%haslyrics% -T "ALBUMARTIST=%albumartist%" -T "DISCNUMBER=%cdnumber%" -T "TOTALDISCS=%totalcds%" -T "TOTALTRACKS=%numtracks%" -T "COMMENT=%comment%" %source% -o %dest%

TOC of the extracted CD

Track | Start | Length | Start sector | End sector
––––––––––––––––––––––––––––-
1 | 0:00.00 | 12:04.00 | 0 | 54299
2 | 12:04.00 | 17:48.00 | 54300 | 134399

Track 1

Filename E:musik_eigeneDiamanda Galas – (1989) The Litanies of Satan [FLAC]1 – Wild Women With Steak-Knives (The Homicidal Love Song for Solo Scream).wav

Pre-gap length 0:00:02.00

Peak level 100.0 %
Extraction speed 2.2 X
Track quality 99.9 %
Test CRC 816055E8
Copy CRC 816055E8
Accurately ripped (confidence 7) [6BB7E893] (AR v2)
Copy OK

Track 2

Filename E:musik_eigeneDiamanda Galas – (1989) The Litanies of Satan [FLAC]2 – The Litanies of Satan.wav

Pre-gap length 0:00:02.00

Peak level 93.3 %
Extraction speed 2.7 X
Track quality 99.9 %
Test CRC B7F8D17B
Copy CRC B7F8D17B
Accurately ripped (confidence 7) [CC124A73] (AR v2)
Copy OK

All tracks accurately ripped

No errors occurred

End of status report

–– CUETools DB Plugin V2.1.6

[CTDB TOCID: LlphCkSMH_mwiGT2ZQVLwoT8sH4-] found
Submit result: LlphCkSMH_mwiGT2ZQVLwoT8sH4- has been confirmed
Track | CTDB Status
1 | (13/13) Accurately ripped
2 | (13/13) Accurately ripped

==== Log checksum 9E8FA249DA3EA827BE33EBDA4D1E0F97A24D3613201B415B13896558533CBCA8 ====

Diamanda Galás - 3 Albums (1982-1992)

Diamanda Galás – You Must Be Certain of the Devil (1988)
EAC Rip | FLAC (tracks+.cue, log) ~ 177.86 Mb | 32:15 | Cover
Avant-garde | Country: USA | Label: Mute (CD STUMM 46)

Track List:
1. "Swing Low Sweet Chariot" (2:44)
2. "Double-Barrel Prayer" (5:05)
3. "Let’s Not Chat About Despair" (4:57)
4. "Birds of Death" (5:17)
5. "You Must Be Certain of the Devil" (4:57)
6. "Let My People Go" (3:21)
7. "Malediction" (4:19)
8. "The Lord Is My Shepherd" (1:32)

EAC log
Exact Audio Copy V0.99 prebeta 5 from 4. May 2009

EAC extraction logfile from 12. August 2010, 15:22

Diamanda Galas / You Must Be Certain Of The Devil

Used drive : TSSTcorpCDDVDW TS-L632N Adapter: 0 ID: 0

Read mode : Secure
Utilize accurate stream : Yes
Defeat audio cache : Yes
Make use of C2 pointers : No

Read offset correction : 6
Overread into Lead-In and Lead-Out : No
Fill up missing offset samples with silence : Yes
Delete leading and trailing silent blocks : No
Null samples used in CRC calculations : Yes
Used interface : Native Win32 interface for Win NT & 2000
Gap handling : Appended to previous track

Used output format : User Defined Encoder
Selected bitrate : 320 kBit/s
Quality : High
Add ID3 tag : Yes
Command line compressor : C:Program FilesExact Audio CopyFlacflac.exe
Additional command line options : -V -8 -T "artist=%a" -T "title=%t" -T "album=%g" -T "date=%y" -T "tracknumber=%n" -T "genre=%m" %s

TOC of the extracted CD

Track | Start | Length | Start sector | End sector
––––––––––––––––––––––––––––-
1 | 0:00.62 | 2:44.63 | 62 | 12424
2 | 2:45.50 | 5:05.02 | 12425 | 35301
3 | 7:50.52 | 4:58.00 | 35302 | 57651
4 | 12:48.52 | 5:19.65 | 57652 | 81641
5 | 18:08.42 | 4:57.30 | 81642 | 103946
6 | 23:05.72 | 3:21.20 | 103947 | 119041
7 | 26:27.17 | 4:19.25 | 119042 | 138491
8 | 30:46.42 | 1:31.70 | 138492 | 145386

Track 1

Filename C:EACripsDiamanda Galas – 1988 – You Must Be Certain Of The Devil [FLAC]1 – Swing Low Sweet Chariot.wav

Pre-gap length 0:00:02.82

Peak level 35.0 %
Track quality 100.0 %
Test CRC 1F474D84
Copy CRC 1F474D84
Accurately ripped (confidence 9) [5728E35C]
Copy OK

Track 2

Filename C:EACripsDiamanda Galas – 1988 – You Must Be Certain Of The Devil [FLAC]2 – Double-Barrel Prayer.wav

Peak level 57.0 %
Track quality 100.0 %
Test CRC 684C57DB
Copy CRC 684C57DB
Accurately ripped (confidence 9) [2D6FF0C4]
Copy OK

Track 3

Filename C:EACripsDiamanda Galas – 1988 – You Must Be Certain Of The Devil [FLAC]3 – Let’s Not Chat About Despair.wav

Pre-gap length 0:00:01.42

Peak level 60.4 %
Track quality 100.0 %
Test CRC 3F07982D
Copy CRC 3F07982D
Accurately ripped (confidence 9) [44956FBC]
Copy OK

Track 4

Filename C:EACripsDiamanda Galas – 1988 – You Must Be Certain Of The Devil [FLAC]4 – Birds Of Death.wav

Peak level 55.4 %
Track quality 100.0 %
Test CRC B096AC33
Copy CRC B096AC33
Accurately ripped (confidence 9) [E29A55EC]
Copy OK

Track 5

Filename C:EACripsDiamanda Galas – 1988 – You Must Be Certain Of The Devil [FLAC]5 – You Must Be Certain Of The Devil.wav

Pre-gap length 0:00:03.06

Peak level 59.4 %
Track quality 100.0 %
Test CRC AA66B199
Copy CRC AA66B199
Accurately ripped (confidence 9) [FDDBCDBB]
Copy OK

Track 6

Filename C:EACripsDiamanda Galas – 1988 – You Must Be Certain Of The Devil [FLAC]6 – Let My People Go.wav

Pre-gap length 0:00:00.80

Peak level 56.6 %
Track quality 100.0 %
Test CRC C156ECC7
Copy CRC C156ECC7
Accurately ripped (confidence 9) [B17DAFF8]
Copy OK

Track 7

Filename C:EACripsDiamanda Galas – 1988 – You Must Be Certain Of The Devil [FLAC]7 – Malediction.wav

Peak level 62.3 %
Track quality 99.9 %
Test CRC 2E428EAF
Copy CRC 2E428EAF
Accurately ripped (confidence 9) [59B582C0]
Copy OK

Track 8

Filename C:EACripsDiamanda Galas – 1988 – You Must Be Certain Of The Devil [FLAC]8 – The Lord Is My Shepherd.wav

Peak level 66.6 %
Track quality 100.0 %
Test CRC FB7F9AB3
Copy CRC FB7F9AB3
Accurately ripped (confidence 9) [D34DA9EF]
Copy OK

All tracks accurately ripped

No errors occurred

End of status report

Diamanda Galás - 3 Albums (1982-1992)

Diamanda Galás – The Singer (1992)
EAC Rip | FLAC (tracks+.cue, log) ~ 220.75 Mb | 46:05 | Cover
Rock, Blues | Country: USA | Label: Mute (CD STUMM 103)

Track List:
1. "My Love Will Never Die" (3:55)
2. "Reap What You Sow" (3:40)
3. "Were You There When They Crucified My Lord?" (5:16)
4. "Gloomy Sunday" (3:01)
5. "Balm in Gilead/Swing Low Sweet Chariot" (5:40)
6. "Insane Asylum" (4:53)
7. "I Put a Spell on You" (4:29)
8. "Let My People Go" (4:59)
9. "See That My Grave Is Kept Clean" (3:10)
10. "Judgement Day" (7:02)

EAC log
Exact Audio Copy V1.1 from 23. June 2015

EAC extraction logfile from 6. December 2016, 20:01

Diamanda Galas / The Singer

Used drive : TSSTcorpDVD+-RW SH-216CB Adapter: 1 ID: 0

Read mode : Secure
Utilize accurate stream : Yes
Defeat audio cache : Yes
Make use of C2 pointers : No

Read offset correction : 6
Overread into Lead-In and Lead-Out : No
Fill up missing offset samples with silence : Yes
Delete leading and trailing silent blocks : No
Null samples used in CRC calculations : Yes
Used interface : Native Win32 interface for Win NT & 2000
Gap handling : Appended to previous track

Used output format : User Defined Encoder
Selected bitrate : 1024 kBit/s
Quality : High
Add ID3 tag : No
Command line compressor : C:Program Files (x86)Exact Audio CopyFLACFLAC.EXE
Additional command line options : -8 -V -T "ARTIST=%artist%" -T "TITLE=%title%" -T "ALBUM=%albumtitle%" -T "DATE=%year%" -T "TRACKNUMBER=%tracknr%" -T "GENRE=%genre%" -T "PERFORMER=%albuminterpret%" -T "COMPOSER=%composer%" %haslyrics%–tag-from-file=LYRICS="%lyricsfile%"%haslyrics% -T "ALBUMARTIST=%albumartist%" -T "DISCNUMBER=%cdnumber%" -T "TOTALDISCS=%totalcds%" -T "TOTALTRACKS=%numtracks%" -T "COMMENT=%comment%" %source% -o %dest%

TOC of the extracted CD

Track | Start | Length | Start sector | End sector
––––––––––––––––––––––––––––-
1 | 0:00.00 | 3:55.52 | 0 | 17676
2 | 3:55.52 | 3:40.23 | 17677 | 34199
3 | 7:36.00 | 5:16.52 | 34200 | 57951
4 | 12:52.52 | 3:01.63 | 57952 | 71589
5 | 15:54.40 | 5:40.40 | 71590 | 97129
6 | 21:35.05 | 4:53.55 | 97130 | 119159
7 | 26:28.60 | 4:29.65 | 119160 | 139399
8 | 30:58.50 | 4:59.40 | 139400 | 161864
9 | 35:58.15 | 3:09.72 | 161865 | 176111
10 | 39:08.12 | 7:02.30 | 176112 | 207791

Track 1

Filename F:MusicEACripsDiamanda Galas – 1992 – The Singer1 – My Love Will Never Die.wav

Pre-gap length 0:00:02.00

Peak level 98.8 %
Extraction speed 3.4 X
Track quality 99.9 %
Test CRC 7C361CF9
Copy CRC 7C361CF9
Accurately ripped (confidence 7) [951F480A] (AR v2)
Copy OK

Track 2

Filename F:MusicEACripsDiamanda Galas – 1992 – The Singer2 – Reap What You Sow.wav

Pre-gap length 0:00:05.14

Peak level 98.8 %
Extraction speed 4.6 X
Track quality 100.0 %
Test CRC F6C6CC0D
Copy CRC F6C6CC0D
Accurately ripped (confidence 7) [3FCE6CF3] (AR v2)
Copy OK

Track 3

Filename F:MusicEACripsDiamanda Galas – 1992 – The Singer3 – Were You There When They Crucified My Lord.wav

Pre-gap length 0:00:05.29

Peak level 98.8 %
Extraction speed 4.5 X
Track quality 99.9 %
Test CRC 3C4CFC7C
Copy CRC 3C4CFC7C
Accurately ripped (confidence 7) [FC9621D5] (AR v2)
Copy OK

Track 4

Filename F:MusicEACripsDiamanda Galas – 1992 – The Singer4 – Gloomy Sunday.wav

Pre-gap length 0:00:04.92

Peak level 98.8 %
Extraction speed 5.2 X
Track quality 100.0 %
Test CRC B99FC871
Copy CRC B99FC871
Accurately ripped (confidence 7) [55DCA218] (AR v2)
Copy OK

Track 5

Filename F:MusicEACripsDiamanda Galas – 1992 – The Singer5 – Balm in Gilead , Swing Low, Sweet Chariot.wav

Pre-gap length 0:00:04.96

Peak level 98.8 %
Extraction speed 6.1 X
Track quality 100.0 %
Test CRC 01A39619
Copy CRC 01A39619
Accurately ripped (confidence 7) [46077ADF] (AR v2)
Copy OK

Track 6

Filename F:MusicEACripsDiamanda Galas – 1992 – The Singer6 – Insane Asylum.wav

Pre-gap length 0:00:04.96

Peak level 98.8 %
Extraction speed 6.5 X
Track quality 100.0 %
Test CRC 00309C87
Copy CRC 00309C87
Accurately ripped (confidence 7) [9289A53A] (AR v2)
Copy OK

Track 7

Filename F:MusicEACripsDiamanda Galas – 1992 – The Singer7 – I Put A Spell On You.wav

Pre-gap length 0:00:04.25

Peak level 98.8 %
Extraction speed 6.7 X
Track quality 100.0 %
Test CRC C0622A8B
Copy CRC C0622A8B
Accurately ripped (confidence 6) [AE57952A] (AR v2)
Copy OK

Track 8

Filename F:MusicEACripsDiamanda Galas – 1992 – The Singer8 – Let My People Go.wav

Pre-gap length 0:00:04.78

Peak level 98.8 %
Extraction speed 7.1 X
Track quality 100.0 %
Test CRC 38B999C7
Copy CRC 38B999C7
Accurately ripped (confidence 6) [4B16BF58] (AR v2)
Copy OK

Track 9

Filename F:MusicEACripsDiamanda Galas – 1992 – The Singer9 – See That My Grave Is Kept Clean.wav

Pre-gap length 0:00:05.45

Peak level 98.8 %
Extraction speed 6.9 X
Track quality 100.0 %
Test CRC 7E8F8757
Copy CRC 7E8F8757
Accurately ripped (confidence 6) [734D608F] (AR v2)
Copy OK

Track 10

Filename F:MusicEACripsDiamanda Galas – 1992 – The Singer10 – Judgement Day.wav

Pre-gap length 0:00:03.28

Peak level 98.8 %
Extraction speed 8.0 X
Track quality 100.0 %
Test CRC 9AFCC3BE
Copy CRC 9AFCC3BE
Accurately ripped (confidence 6) [16022348] (AR v2)
Copy OK

All tracks accurately ripped

No errors occurred

End of status report

–– CUETools DB Plugin V2.1.6

[CTDB TOCID: lnJapM3kyrjBt9gWvxNYIU.Wx.o-] found
Submit result: lnJapM3kyrjBt9gWvxNYIU.Wx.o- has been confirmed
Track | CTDB Status
1 | (9/9) Accurately ripped
2 | (9/9) Accurately ripped
3 | (9/9) Accurately ripped
4 | (9/9) Accurately ripped
5 | (9/9) Accurately ripped
6 | (9/9) Accurately ripped
7 | (9/9) Accurately ripped
8 | (9/9) Accurately ripped
9 | (9/9) Accurately ripped
10 | (9/9) Accurately ripped

==== Log checksum 5B9F640C2345FFDB4CB67913AB6BD3A31B1E0CD71F16D62BA6A5E498BF2412E3 ====

All thanks go to the What.CD

More Music in My Blog
Follow My RSS Channel

Diamanda Galás – 3 Albums (1982-1992) Download, Warez, DDL, Free, Full Album, Torrent, Legal.

Download