Derek And The Dominos – Layla And Other Assorted Love Songs (1970) {2011/2017, Remastered, Japanese Reissue}

Download
Derek And The Dominos - Layla And Other Assorted Love Songs (1970) {2011/2017, Remastered, Japanese Reissue}

Derek And The Dominos – Layla And Other Assorted Love Songs (1970) {2011/2017, Remastered, Japanese Reissue}
EAC Rip | FLAC (Img) + Cue + Log ~ 543 Mb | MP3 CBR320 ~ 185 Mb
Full Scans (PNG, 600 dpi) ~ 284 Mb | RAR 5% Recovery
Classic Rock, Blues Rock | Polydor / Universal Music #UICY-25054 / UICY-78293

Layla and Other Assorted Love Songs is the only studio album by Anglo-American blues rock band Derek and the Dominos. Released in November 1970, the double album is best known for its title track, "Layla", and is often regarded as Eric Clapton’s greatest musical achievement. The other band members were Bobby Whitlock on keyboards and vocals, Jim Gordon on drums, Carl Radle on bass, and special guest performer Duane Allman on lead and slide guitar on 11 of the 14 songs. In 2000, the album was inducted into the Grammy Hall of Fame. In 2003, television network VH1 named Layla and Other Assorted Love Songs the 89th-greatest album of all time, and Rolling Stone ranked it number 117 on its list of "The 500 Greatest Albums of All Time". Critic Robert Christgau ranked Layla the third greatest album of the 1970s.

~ Wiki
Derek And The Dominos - Layla And Other Assorted Love Songs (1970) {2011/2017, Remastered, Japanese Reissue}

Wiki | Discogs | All Music

***************

Derek And The Dominos - Layla And Other Assorted Love Songs (1970) {2011/2017, Remastered, Japanese Reissue}

Derek And The Dominos - Layla And Other Assorted Love Songs (1970) {2011/2017, Remastered, Japanese Reissue}

Derek And The Dominos - Layla And Other Assorted Love Songs (1970) {2011/2017, Remastered, Japanese Reissue}

Track List:

01. I Looked Away [3:07]
02. Bell Bottom Blues [5:05]
03. Keep On Growing [6:23]
04. Nobody Knows You When You’re Down And Out [5:00]
05. I Am Yours [3:37]
06. Anyday [6:37]
07. Key To The Highway [9:40]
08. Tell The Truth [6:42]
09. Why Does Love Got To Be So Sad [4:45]
10. Have You Ever Loved A Woman [6:54]
11. Little Wing [5:36]
12. It’s Too Late [3:53]
13. Layla [7:07]
14. Thorn Tree In The Garden [2:51]

Personnel:
Eric Clapton – vocals, guitars
Bobby Whitlock – vocals, keyboards; acoustic guitar on "Thorn Tree in the Garden"
Carl Radle – bass, percussion
Jim Gordon – drums, percussion; piano on "Layla"
Duane Allman – guitars on all tracks except "I Looked Away," "Bell Bottom Blues," and "Keep on Growing"
Albhy Galuten – piano on "Nobody Knows You When You’re Down and Out"

EAC Log
Exact Audio Copy V1.3 from 2. September 2016

EAC extraction logfile from 30. July 2017, 13:20

Derek And The Dominos / Layla And Other Assorted Love Songs

Used drive : TSSTcorpCDDVDW SE-S084C Adapter: 0 ID: 0

Read mode : Secure
Utilize accurate stream : Yes
Defeat audio cache : Yes
Make use of C2 pointers : No

Read offset correction : 6
Overread into Lead-In and Lead-Out : No
Fill up missing offset samples with silence : Yes
Delete leading and trailing silent blocks : No
Null samples used in CRC calculations : Yes
Used interface : Installed external ASPI interface

Used output format : User Defined Encoder
Selected bitrate : 320 kBit/s
Quality : High
Add ID3 tag : No
Command line compressor : C:Program Files (x86)Exact Audio CopyFLACFLAC.EXE
Additional command line options : -V -8 -T "Date=%year%" -T "Genre=%genre%" %source%

TOC of the extracted CD

Track | Start | Length | Start sector | End sector
––––––––––––––––––––––––––––-
1 | 0:00.00 | 3:07.18 | 0 | 14042
2 | 3:07.18 | 5:04.47 | 14043 | 36889
3 | 8:11.65 | 6:23.00 | 36890 | 65614
4 | 14:34.65 | 5:00.14 | 65615 | 88128
5 | 19:35.04 | 3:37.32 | 88129 | 104435
6 | 23:12.36 | 6:37.16 | 104436 | 134226
7 | 29:49.52 | 9:39.73 | 134227 | 177724
8 | 39:29.50 | 6:41.50 | 177725 | 207849
9 | 46:11.25 | 4:44.44 | 207850 | 229193
10 | 50:55.69 | 6:54.22 | 229194 | 260265
11 | 57:50.16 | 5:36.37 | 260266 | 285502
12 | 63:26.53 | 3:52.42 | 285503 | 302944
13 | 67:19.20 | 7:06.43 | 302945 | 334937
14 | 74:25.63 | 2:50.65 | 334938 | 347752

Range status and errors

Selected range

Filename D:EACEric Burdon – 2013 – ‘Til Your River Runs Dry {ABKCO – 8906-2} [FLAC]Derek And The Dominos – Layla And Other Assorted Love Songs.wav

Peak level 100.0 %
Extraction speed 4.9 X
Range quality 99.9 %
Test CRC 9D59E870
Copy CRC 9D59E870
Copy OK

No errors occurred

AccurateRip summary

Track 1 accurately ripped (confidence 200) [77E9B6A4] (AR v2)
Track 2 accurately ripped (confidence 200) [B0C053BB] (AR v2)
Track 3 accurately ripped (confidence 200) [AE9716DD] (AR v2)
Track 4 accurately ripped (confidence 200) [8182FA02] (AR v2)
Track 5 accurately ripped (confidence 200) [9290F3F5] (AR v2)
Track 6 accurately ripped (confidence 200) [07A2E064] (AR v2)
Track 7 accurately ripped (confidence 200) [620BC671] (AR v2)
Track 8 accurately ripped (confidence 200) [E0E0855A] (AR v2)
Track 9 accurately ripped (confidence 200) [C8F4ADCC] (AR v2)
Track 10 accurately ripped (confidence 200) [37D53BC1] (AR v2)
Track 11 accurately ripped (confidence 200) [4F8FFD7D] (AR v2)
Track 12 accurately ripped (confidence 200) [06643800] (AR v2)
Track 13 accurately ripped (confidence 193) [548B25EB] (AR v2)
Track 14 accurately ripped (confidence 200) [AB0EE237] (AR v2)

All tracks accurately ripped

End of status report

–– CUETools DB Plugin V2.1.6

[CTDB TOCID: 4dTLJHWr85Z5Ot1c2KKXMh3M16o-] found
Submit result: 4dTLJHWr85Z5Ot1c2KKXMh3M16o- has been confirmed
Track | CTDB Status
1 | (358/361) Accurately ripped
2 | (358/361) Accurately ripped
3 | (357/361) Accurately ripped
4 | (353/361) Accurately ripped
5 | (358/361) Accurately ripped
6 | (355/361) Accurately ripped
7 | (345/361) Accurately ripped
8 | (356/361) Accurately ripped
9 | (352/361) Accurately ripped
10 | (350/361) Accurately ripped
11 | (355/361) Accurately ripped
12 | (349/361) Accurately ripped
13 | (300/361) Accurately ripped, or (46/361) differs in 20 samples @03:29:34
14 | (352/361) Accurately ripped

==== Log checksum A8B5CAE52462E824EC925FEDD0F194A9CB7C41BF888636F5B360C176A9EE0DBA ====

DR Log
foobar2000 1.2.6 / Dynamic Range Meter 1.1.1
log date: 2017-07-30 20:09:00

––––––––––––––––––––––––––––––––––––––––
Analyzed: Derek And The Dominos / Layla And Other Assorted Love Songs
––––––––––––––––––––––––––––––––––––––––

DR Peak RMS Duration Track
––––––––––––––––––––––––––––––––––––––––
DR8 -1.00 dB -10.28 dB 3:07 01-I Looked Away
DR5 -1.56 dB -8.91 dB 5:05 02-Bell Bottom Blues
DR7 -1.68 dB -9.87 dB 6:23 03-Keep On Growing
DR6 -1.02 dB -9.08 dB 5:00 04-Nobody Knows You When You’re Down And Out
DR11 -1.91 dB -15.44 dB 3:37 05-I Am Yours
DR6 -0.76 dB -8.75 dB 6:37 06-Anyday
DR6 -1.30 dB -8.82 dB 9:40 07-Key To The Highway
DR5 -0.52 dB -7.12 dB 6:42 08-Tell The Truth
DR7 0.00 dB -8.91 dB 4:45 09-Why Does Love Got To Be So Sad
DR6 -0.35 dB -8.79 dB 6:54 10-Have You Ever Loved A Woman
DR5 -0.62 dB -6.86 dB 5:36 11-Little Wing
DR5 -0.89 dB -8.31 dB 3:53 12-It’s Too Late
DR5 -0.37 dB -7.03 dB 7:07 13-Layla
DR11 -1.30 dB -16.38 dB 2:51 14-Thorn Tree In The Garden
––––––––––––––––––––––––––––––––––––––––

Number of tracks: 14
Official DR value: DR7

Samplerate: 44100 Hz
Channels: 2
Bits per sample: 16
Bitrate: 935 kbps
Codec: FLAC
================================================================================

CUETools Log
[CUETools log; Date: 30.07.2017 20:09:07; Version: 2.1.5]
[CTDB TOCID: 4dTLJHWr85Z5Ot1c2KKXMh3M16o-] found.
Track | CTDB Status
1 | (359/362) Accurately ripped
2 | (359/362) Accurately ripped
3 | (358/362) Accurately ripped
4 | (354/362) Accurately ripped
5 | (359/362) Accurately ripped
6 | (356/362) Accurately ripped
7 | (346/362) Accurately ripped
8 | (357/362) Accurately ripped
9 | (353/362) Accurately ripped
10 | (351/362) Accurately ripped
11 | (356/362) Accurately ripped
12 | (350/362) Accurately ripped
13 | (301/362) Accurately ripped, or (46/362) differs in 20 samples @03:29:34
14 | (353/362) Accurately ripped
[AccurateRip ID: 0027834a-01ad27cb-dc121c0e] found.
Track [ CRC | V2 ] Status
01 [1c34d545|77e9b6a4] (040+200/246) Accurately ripped
02 [8ca7776a|b0c053bb] (040+200/246) Accurately ripped
03 [8384d030|ae9716dd] (040+200/246) Accurately ripped
04 [dbd7e852|8182fa02] (040+200/246) Accurately ripped
05 [5c158062|9290f3f5] (040+200/246) Accurately ripped
06 [2599deec|07a2e064] (039+200/245) Accurately ripped
07 [788664ff|620bc671] (040+200/246) Accurately ripped
08 [572d1bfb|e0e0855a] (040+200/246) Accurately ripped
09 [de334a68|c8f4adcc] (040+200/246) Accurately ripped
10 [1a54628d|37d53bc1] (040+200/246) Accurately ripped
11 [9fdc9673|4f8ffd7d] (040+200/246) Accurately ripped
12 [361190e4|06643800] (040+200/246) Accurately ripped
13 [49822ffb|548b25eb] (035+193/289) Accurately ripped
14 [933c9b02|ab0ee237] (040+200/246) Accurately ripped
Offsetted by -694:
01 [bcd3efbb] (000/246) No match (V2 was not tested)
02 [6c1d9754] (000/246) No match (V2 was not tested)
03 [dfc2433e] (000/246) No match (V2 was not tested)
04 [ae44ee34] (000/246) No match (V2 was not tested)
05 [04e7e130] (000/246) No match (V2 was not tested)
06 [c9cceda8] (000/245) No match (V2 was not tested)
07 [46417dbd] (000/246) No match (V2 was not tested)
08 [1ca094e7] (000/246) No match (V2 was not tested)
09 [0563e5fc] (000/246) No match (V2 was not tested)
10 [04f2abbd] (000/246) No match (V2 was not tested)
11 [01226995] (000/246) No match (V2 was not tested)
12 [d3b130d8] (000/246) No match (V2 was not tested)
13 [0754932d] (000/289) No match (V2 was not tested)
14 [6b822a8a] (000/246) No match (V2 was not tested)
Offsetted by -36:
01 [2d642fe9] (000/246) No match (V2 was not tested)
02 [99b8a906] (000/246) No match (V2 was not tested)
03 [c9f6a9e4] (000/246) No match (V2 was not tested)
04 [b9c1873e] (000/246) No match (V2 was not tested)
05 [5e339896] (000/246) No match (V2 was not tested)
06 [109bc814] (000/245) No match (V2 was not tested)
07 [7c8e9fd3] (000/246) No match (V2 was not tested)
08 [127aa943] (000/246) No match (V2 was not tested)
09 [6213e020] (000/246) No match (V2 was not tested)
10 [a6de70ad] (000/246) No match (V2 was not tested)
11 [847248df] (000/246) No match (V2 was not tested)
12 [1e858edc] (000/246) No match (V2 was not tested)
13 [0c87efc7] (000/289) No match (V2 was not tested)
14 [27ad66b2] (000/246) No match (V2 was not tested)

Track Peak [ CRC32 ] [W/O NULL] [ LOG ]
– 100,0 [9D59E870] [9E5BF840] CRC32
01 89,0 [05B76003] [95D2BCF3]
02 83,5 [B64D9CC2] [90E49544]
03 82,3 [94A99344] [4804BD1F]
04 88,9 [9F7540B0] [81BADDDD]
05 80,2 [E487259F] [56B1121C]
06 91,6 [147C93C7] [6F44F625]
07 86,1 [B639C31D] [87B9BF08]
08 94,2 [D98EF5EA] [6FF4C391]
09 100,0 [8E9A01AA] [AED48E68]
10 96,0 [7A73C4F3] [B98FD946]
11 93,1 [C463C416] [D2D01343]
12 90,2 [7F663B1D] [01F1BF78]
13 95,8 [B4699FB9] [BCEAB079]
14 86,0 [4398B35B] [7BB5C560]

Derek And The Dominos - Layla And Other Assorted Love Songs (1970) {2011/2017, Remastered, Japanese Reissue}

See also:
Derek And The Dominos – Layla And Other Assorted Love Songs (1970) {1989, 2CD Japanese Edition}

All thanks go to salernitana

>>> My Blog <<<

Download from icerbox.com:

Derek And The Dominos – Layla And Other Assorted Love Songs (1970) {2011/2017, Remastered, Japanese Reissue} Download, Warez, DDL, Free, Full Album, Torrent, Legal.

Download