Depeche Mode – Going Backwards (Remixes) (2017)

Download
Depeche Mode - Going Backwards (Remixes) (2017)

Depeche Mode – Going Backwards (Remixes)
EAC Rip | FLAC (tracks)+cue, log, m3u, front cover | 49:26 min | 297 MB
Label: Mute – 88985477452 | Tracks: 08 | Rls.date: 2017
Electronic, Alternative

DEPECHE MODE Going Backwards (2017 UK 8-track CD single including the Radio Edit along with the Chris Liebing Solomun Extended Belville Three Full Vocal Point Point and Maya Jane Coles remixes plus Poison Heart [Soulsavers Re-Work] housed inthe sealed & hype stickered card wallet picture sleeve)

TRACKLIST
01. Going Backwards (Radio Edit)
02. Going Backwards (Chris Liebing Mix)
03. Going Backwards (Solomun Extended Radio Remix)
04. Going Backwards (The Belleville Three Full Vocal Mix)
05. Going Backwards (Point Point Remix)
06. Going Backwards (Chris Liebing Burn Slow Mix)
07. Going Backwards (Maya Jane Coles Remix)
08. Poison Heart (Soulsavers Re-Work)

EAC Log
Exact Audio Copy V1.0 beta 6 from 9. April 2015

EAC extraction logfile from 9. October 2017, 13:52

Depeche Mode / Going Backwards (Remixes)

Used drive : TSSTcorpDVD+-RW SU-208GB Adapter: 1 ID: 0

Read mode : Secure
Utilize accurate stream : Yes
Defeat audio cache : Yes
Make use of C2 pointers : No

Read offset correction : 6
Overread into Lead-In and Lead-Out : No
Fill up missing offset samples with silence : Yes
Delete leading and trailing silent blocks : No
Null samples used in CRC calculations : Yes
Used interface : Native Win32 interface for Win NT & 2000
Gap handling : Appended to previous track

Used output format : User Defined Encoder
Selected bitrate : 1024 kBit/s
Quality : High
Add ID3 tag : No
Command line compressor : C:Program Files (x86)Exact Audio CopyFlacflac.exe
Additional command line options : -8 -V -T "ARTIST=%artist%" -T "TITLE=%title%" -T "ALBUM=%albumtitle%" -T "DATE=%year%" -T "TRACKNUMBER=%tracknr%" -T "GENRE=%genre%" -T "PERFORMER=%albuminterpret%" -T "COMPOSER=%composer%" %haslyrics%–tag-from-file=LYRICS="%lyricsfile%"%haslyrics% -T "ALBUMARTIST=%albumartist%" -T "DISCNUMBER=%cdnumber%" -T "TOTALDISCS=%totalcds%" -T "TOTALTRACKS=%numtracks%" -T "COMMENT=%comment%" %source% -o %dest%

TOC of the extracted CD

Track | Start | Length | Start sector | End sector
––––––––––––––––––––––––––––-
1 | 0:00.00 | 3:51.61 | 0 | 17385
2 | 3:51.61 | 9:08.31 | 17386 | 58516
3 | 13:00.17 | 8:26.39 | 58517 | 96505
4 | 21:26.56 | 6:44.21 | 96506 | 126826
5 | 28:11.02 | 4:32.47 | 126827 | 147273
6 | 32:43.49 | 7:08.57 | 147274 | 179430
7 | 39:52.31 | 5:57.15 | 179431 | 206220
8 | 45:49.46 | 3:40.42 | 206221 | 222762

Track 1

Filename C:Rips1 – Going Backwards (Radio Edit).wav

Pre-gap length 0:00:02.00

Peak level 96.5 %
Extraction speed 2.5 X
Track quality 100.0 %
Test CRC 15A59F15
Copy CRC 15A59F15
Accurately ripped (confidence 2) [139CA1A6] (AR v2)
Copy OK

Track 2

Filename C:Rips2 – Going Backwards (Chris Liebing Mix).wav

Peak level 89.7 %
Extraction speed 3.2 X
Track quality 100.0 %
Test CRC 43847D0B
Copy CRC 43847D0B
Accurately ripped (confidence 2) [A188CEC8] (AR v2)
Copy OK

Track 3

Filename C:Rips3 – Going Backwards (Solomun Extended Radio Remix).wav

Peak level 97.5 %
Extraction speed 3.7 X
Track quality 100.0 %
Test CRC BC385D41
Copy CRC BC385D41
Accurately ripped (confidence 2) [C2E77000] (AR v2)
Copy OK

Track 4

Filename C:Rips4 – Going Backwards (The Belleville Three Full Vocal Mix).wav

Peak level 86.8 %
Extraction speed 4.1 X
Track quality 100.0 %
Test CRC D20E7ED7
Copy CRC D20E7ED7
Accurately ripped (confidence 2) [C0B32688] (AR v2)
Copy OK

Track 5

Filename C:Rips5 – Going Backwards (Point Point Remix).wav

Peak level 99.9 %
Extraction speed 4.1 X
Track quality 100.0 %
Test CRC 0A870FB6
Copy CRC 0A870FB6
Accurately ripped (confidence 2) [5A12B7BC] (AR v2)
Copy OK

Track 6

Filename C:Rips6 – Going Backwards (Chris Liebing Burn Slow Mix).wav

Peak level 99.0 %
Extraction speed 4.5 X
Track quality 100.0 %
Test CRC 92D8D3D7
Copy CRC 92D8D3D7
Accurately ripped (confidence 2) [11768FB7] (AR v2)
Copy OK

Track 7

Filename C:Rips7 – Going Backwards (Maya Jane Coles Remix).wav

Peak level 96.8 %
Extraction speed 3.9 X
Track quality 99.9 %
Test CRC A2DA5F85
Copy CRC A2DA5F85
Accurately ripped (confidence 2) [F00649FA] (AR v2)
Copy OK

Track 8

Filename C:Rips8 – Poison Heart (Soulsavers Re-Work).wav

Peak level 98.7 %
Extraction speed 4.4 X
Track quality 100.0 %
Test CRC E243BBDC
Copy CRC E243BBDC
Accurately ripped (confidence 2) [A9F58149] (AR v2)
Copy OK

All tracks accurately ripped

No errors occurred

End of status report

–– CUETools DB Plugin V2.1.6

[CTDB TOCID: RLoSgsRXRXuJeMag_XhKd84MxDE-] found
Submit result: RLoSgsRXRXuJeMag_XhKd84MxDE- has been confirmed
Track | CTDB Status
1 | (41/41) Accurately ripped
2 | (41/41) Accurately ripped
3 | (41/41) Accurately ripped
4 | (41/41) Accurately ripped
5 | (41/41) Accurately ripped
6 | (41/41) Accurately ripped
7 | (41/41) Accurately ripped
8 | (41/41) Accurately ripped

==== Log checksum BC102798C6D7F2671E8011725B65E7E83E7BA63703535E4E6272DAFEB427E8AB ====

Thanks to the Original customer.

Depeche Mode – Going Backwards (Remixes) (2017) Download, Warez, DDL, Free, Full Album, Torrent, Legal.

Download