Deniece Williams • Niecy '82 Let's Hear It For The Boy '84 (2009)

Download
Deniece Williams • Niecy '82 Let's Hear It For The Boy '84 (2009)

Deniece Williams • Niecy ’82 Let’s Hear It For The Boy ’84 (2009)
EAC Rip | FLAC (Tracks) +CUE, LOG | 493 MB | Covers Included
Genre: R&B,Funk,Soul, Disco | Label: SPV | Catalog Number: SPV 306632 CD

Deniece Williams (born June Deniece Chandler; June 3, 1950) is an American singer–songwriter and record producer. Williams is known for hits such as "Free" (1976), "Too Much, Too Little, Too Late" (1978), "Silly" (1981), "It’s Gonna Take a Miracle" (1982), "Let’s Hear It for the Boy" (1984), and for her duets with Johnny Mathis.

EAC Log
Exact Audio Copy V0.99 prebeta 5 from 4. May 2009

EAC extraction logfile from 23. September 2010, 16:13

Deniece Williams / Niecy + Let’s Hear It For The Boy

Used drive : TSSTcorpCDDVDW SH-S223F Adapter: 1 ID: 1

Read mode : Secure
Utilize accurate stream : Yes
Defeat audio cache : Yes
Make use of C2 pointers : No

Read offset correction : 6
Overread into Lead-In and Lead-Out : No
Fill up missing offset samples with silence : Yes
Delete leading and trailing silent blocks : No
Null samples used in CRC calculations : Yes
Used interface : Native Win32 interface for Win NT & 2000
Gap handling : Appended to previous track

Used output format : User Defined Encoder
Selected bitrate : 320 kBit/s
Quality : High
Add ID3 tag : No
Command line compressor : C:ProgrammeExact Audio CopyFlacflac.exe
Additional command line options : -8 -V -T "ARTIST=%a" -T "TITLE=%t" -T "ALBUM=%g" -T "DATE=%y" -T "TRACKNUMBER=%n" -T "TOTALTRACKS=%x" -T "GENRE=%m" -T "ALBUMARTIST=%v" -T "ALBUM ARTIST=%v" -T "COMMENT=EAC Secure Mode, Test & Copy, AccurateRip, FLAC -8" %s

TOC of the extracted CD

Track | Start | Length | Start sector | End sector
––––––––––––––––––––––––––––-
1 | 0:00.00 | 3:40.04 | 0 | 16503
2 | 3:40.04 | 4:10.45 | 16504 | 35298
3 | 7:50.49 | 4:20.47 | 35299 | 54845
4 | 12:11.21 | 2:51.32 | 54846 | 67702
5 | 15:02.53 | 5:48.23 | 67703 | 93825
6 | 20:51.01 | 4:30.49 | 93826 | 114124
7 | 25:21.50 | 4:07.14 | 114125 | 132663
8 | 29:28.64 | 3:36.38 | 132664 | 148901
9 | 33:05.27 | 4:17.60 | 148902 | 168236
10 | 37:23.12 | 2:52.16 | 168237 | 181152
11 | 40:15.28 | 4:38.02 | 181153 | 202004
12 | 44:53.30 | 4:27.11 | 202005 | 222040
13 | 49:20.41 | 4:31.33 | 222041 | 242398
14 | 53:51.74 | 4:58.17 | 242399 | 264765
15 | 58:50.16 | 4:00.46 | 264766 | 282811
16 | 62:50.62 | 3:38.59 | 282812 | 299220
17 | 66:29.46 | 4:36.35 | 299221 | 319955
18 | 71:06.06 | 3:42.33 | 319956 | 336638

Track 1

Filename H:Eac Ripps1 – Waiting By The Hotline.wav

Pre-gap length 0:00:02.00

Peak level 100.0 %
Track quality 100.0 %
Test CRC FBC8A3F9
Copy CRC FBC8A3F9
Track not present in AccurateRip database
Copy OK

Track 2

Filename H:Eac Ripps2 – It’s Gonna Take A Miracle.wav

Pre-gap length 0:00:02.00

Peak level 100.0 %
Track quality 100.0 %
Test CRC E9D124A6
Copy CRC E9D124A6
Track not present in AccurateRip database
Copy OK

Track 3

Filename H:Eac Ripps3 – Love Notes.wav

Pre-gap length 0:00:02.00

Peak level 100.0 %
Track quality 100.0 %
Test CRC 20DE95DD
Copy CRC 20DE95DD
Track not present in AccurateRip database
Copy OK

Track 4

Filename H:Eac Ripps4 – I Believe In Miracles.wav

Pre-gap length 0:00:02.00

Peak level 100.0 %
Track quality 100.0 %
Test CRC 9A17DB9D
Copy CRC 9A17DB9D
Track not present in AccurateRip database
Copy OK

Track 5

Filename H:Eac Ripps5 – How Does It Feel.wav

Pre-gap length 0:00:02.00

Peak level 100.0 %
Track quality 100.0 %
Test CRC 8BC50212
Copy CRC 8BC50212
Track not present in AccurateRip database
Copy OK

Track 6

Filename H:Eac Ripps6 – Waiting.wav

Pre-gap length 0:00:02.00

Peak level 100.0 %
Track quality 99.9 %
Test CRC BCF8D920
Copy CRC BCF8D920
Track not present in AccurateRip database
Copy OK

Track 7

Filename H:Eac Ripps7 – Now Is The Time For Love.wav

Pre-gap length 0:00:02.00

Peak level 100.0 %
Track quality 100.0 %
Test CRC 6A10236D
Copy CRC 6A10236D
Track not present in AccurateRip database
Copy OK

Track 8

Filename H:Eac Ripps8 – A Part Of Love.wav

Pre-gap length 0:00:02.00

Peak level 100.0 %
Track quality 99.9 %
Test CRC CFCA1FC1
Copy CRC CFCA1FC1
Track not present in AccurateRip database
Copy OK

Track 9

Filename H:Eac Ripps9 – Let’s Hear It For The Boy.wav

Pre-gap length 0:00:02.00

Peak level 100.0 %
Track quality 100.0 %
Test CRC 13C7329C
Copy CRC 13C7329C
Track not present in AccurateRip database
Copy OK

Track 10

Filename H:Eac Ripps10 – I Want You.wav

Pre-gap length 0:00:02.00

Peak level 100.0 %
Track quality 100.0 %
Test CRC BA67B49E
Copy CRC BA67B49E
Track not present in AccurateRip database
Copy OK

Track 11

Filename H:Eac Ripps11 – Picking Up The Pieces.wav

Pre-gap length 0:00:02.00

Peak level 100.0 %
Track quality 100.0 %
Test CRC A9E4DF82
Copy CRC A9E4DF82
Track not present in AccurateRip database
Copy OK

Track 12

Filename H:Eac Ripps12 – Black Butterfly.wav

Pre-gap length 0:00:02.00

Peak level 100.0 %
Track quality 100.0 %
Test CRC 4D8A5D9E
Copy CRC 4D8A5D9E
Track not present in AccurateRip database
Copy OK

Track 13

Filename H:Eac Ripps13 – Next Love.wav

Pre-gap length 0:00:02.00

Peak level 100.0 %
Track quality 100.0 %
Test CRC 6C143B01
Copy CRC 6C143B01
Track not present in AccurateRip database
Copy OK

Track 14

Filename H:Eac Ripps14 – Haunting Me.wav

Pre-gap length 0:00:02.00

Peak level 100.0 %
Track quality 100.0 %
Test CRC 9E817814
Copy CRC 9E817814
Track not present in AccurateRip database
Copy OK

Track 15

Filename H:Eac Ripps15 – Don’t Tell Me We Have Nothing.wav

Pre-gap length 0:00:02.00

Peak level 100.0 %
Track quality 100.0 %
Test CRC CE819030
Copy CRC CE819030
Track not present in AccurateRip database
Copy OK

Track 16

Filename H:Eac Ripps16 – Blind Dating.wav

Pre-gap length 0:00:02.00

Peak level 100.0 %
Track quality 100.0 %
Test CRC 18941D6A
Copy CRC 18941D6A
Track not present in AccurateRip database
Copy OK

Track 17

Filename H:Eac Ripps17 – Wrapped Up.wav

Pre-gap length 0:00:02.00

Peak level 100.0 %
Track quality 100.0 %
Test CRC 042E54DB
Copy CRC 042E54DB
Track not present in AccurateRip database
Copy OK

Track 18

Filename H:Eac Ripps18 – Whiter Than Snow.wav

Pre-gap length 0:00:02.00

Peak level 100.0 %
Track quality 100.0 %
Test CRC 15903AFF
Copy CRC 15903AFF
Track not present in AccurateRip database
Copy OK

None of the tracks are present in the AccurateRip database

No errors occurred

End of status report

Tracklist:
Niecy – 1982
01. Waiting By The Hotline (3:40)
02. It’s Gonna Take A Miracle (4:10)
03. Love Notes (4:20)
04. I Believe In Miracles (2:51)
05. How Does It Feel (5:48)
06. Waiting (4:30)
07. Now Is The Time For Love (4:07)
08. A Part Of Love (3:36)

Let’s Hear It For The Boy – 1984
09. Let’s Hear It For The Boy (4:17)
10. I Want You (2:52)
11. Picking Up The Pieces (4:38)
12. Black Butterfly (4:27)
13. Next Love (4:31)
14. Haunting Me (4:58)
15. Don’t Tell Me We Have Nothing (4:00)
16. Blind Dating (3:38)
17. Wrapped Up (4:36)
18. Whiter Than Snow (3:42)

Thanks to the original ripper

Deniece Williams • Niecy '82 Let's Hear It For The Boy '84 (2009) Download, Warez, DDL, Free, Full Album, Torrent, Legal.

Download