Demdike Stare – Wonderland (3CD Deluxe Edition) (2016)

Download
Demdike Stare - Wonderland (3CD Deluxe Edition) (2016)

Demdike Stare – Wonderland (3CD Deluxe Edition) (2016)
EAC Rip | FLAC (Tracks) +cue, log, artworks – 1.01 gb | MP3 CBR 320 kbps – 357 MB | 02:34:01
Electronic, Experimental, Ambient, Dub Techno | Label: Modern Love | Release Year: 2016

Wonderland plays the full breadth of the duo’s wide open aesthetic, taking their Testpressing series of dancefloor lashes – issued on 12” between 2013-2015 – as the diving board for an innovative, reverie-like album forming a parallel dancefloor narrative where the spirits of mid ‘90s jungle and digital dancehall are made plasmic, malleable, and syncretised with industrial and ambient techno sound design.

Rooted in record collecting and the art of DJing, and in line with Demdike’s atypical style and pattern, Wonderland veers across styles and temporalities, forming wormholes between Hardstyle and submerged jungle in the curtain-raiser, Curzon, and going in like Slimzee slicing up grime dubs with jungle in the crackden atmosphere of Animal Style, whereas the eleven minute Hardnoise catches them at full stretch, tumbling from head-rinsing noise to a dank, sublow techno mission framed by unsettling ambience somewhere between Prurient’s Rainforest Spiritual Enslavement episodes and a mutant variant of classic Exotica, before coughing you up someplace else.

At the album’s epicentre, FullEdge (eMpty-40 Mix) obliterates distinctions between dancehall and techno as you’ve never heard, an edit that re-laces their formerly mutually exclusive ligature in a belly-tightening and brilliantly messed-up new mutation, before Sourcer prangs out like a cyborg calibrating itself to ragga jungle arrhythmia, and the psychoacoustic nose drip of Fridge Challenge dissipates into the ‘static thizz of Overstaying at the LP’s perimeter, like some DJ Sprinkles cut paused at mid-flow and delayed, re-shaped into a tense burner.

TRACKLIST

CD1 Wonderland

01. Curzon
02. Animal Style
03. Hardnoise
04. Blue
05. FullEdge (eMpTy-40 Mix)
06. Sourcer
07. Airborne Latency
08. Fridge Challenge
09. Overstaying

EAC
Exact Audio Copy V1.1 from 23. June 2015

EAC extraction logfile from 25. December 2016, 2:29

Demdike Stare / Wonderland

Used drive : HL-DT-STDVDRAM GP40NB40 Adapter: 1 ID: 1

Read mode : Secure
Utilize accurate stream : Yes
Defeat audio cache : Yes
Make use of C2 pointers : No

Read offset correction : 6
Overread into Lead-In and Lead-Out : No
Fill up missing offset samples with silence : Yes
Delete leading and trailing silent blocks : No
Null samples used in CRC calculations : Yes
Used interface : Native Win32 interface for Win NT & 2000
Gap handling : Appended to previous track

Used output format : User Defined Encoder
Selected bitrate : 1024 kBit/s
Quality : High
Add ID3 tag : No
Command line compressor : C:Program Files (x86)Exact Audio CopyFlacflac.exe
Additional command line options : -8 -V -T "ARTIST=%artist%" -T "TITLE=%title%" -T "ALBUM=%albumtitle%" -T "DATE=%year%" -T "TRACKNUMBER=%tracknr%" -T "TOTALTRACKS=%numtracks%" -T "GENRE=%genre%" -T "ALBUMARTIST=%albumartist%" -T "ALBUM ARTIST=%albumartist%" -T "COMMENT=EAC Secure Mode, Test & Copy, AccurateRip, FLAC -8" %source%

TOC of the extracted CD

Track | Start | Length | Start sector | End sector
––––––––––––––––––––––––––––-
1 | 0:00.00 | 5:21.53 | 0 | 24127
2 | 5:21.53 | 7:09.11 | 24128 | 56313
3 | 12:30.64 | 10:36.56 | 56314 | 104069
4 | 23:07.45 | 0:58.17 | 104070 | 108436
5 | 24:05.62 | 5:29.31 | 108437 | 133142
6 | 29:35.18 | 5:28.66 | 133143 | 157808
7 | 35:04.09 | 7:03.08 | 157809 | 189541
8 | 42:07.17 | 3:29.10 | 189542 | 205226
9 | 45:36.27 | 5:44.66 | 205227 | 231092

Track 1

Filename C:XBTMusicDemdike Stare – Wonderland (2016) [FLAC] {3xCD – LOVE105CD}CD1 – Wonderland1 – Curzon.wav

Pre-gap length 0:00:02.00

Peak level 96.5 %
Extraction speed 1.1 X
Track quality 99.9 %
Test CRC F3D0E31E
Copy CRC F3D0E31E
Track not present in AccurateRip database
Copy OK

Track 2

Filename C:XBTMusicDemdike Stare – Wonderland (2016) [FLAC] {3xCD – LOVE105CD}CD1 – Wonderland2 – Animal Style.wav

Peak level 96.5 %
Extraction speed 1.4 X
Track quality 100.0 %
Test CRC F5B470EE
Copy CRC F5B470EE
Track not present in AccurateRip database
Copy OK

Track 3

Filename C:XBTMusicDemdike Stare – Wonderland (2016) [FLAC] {3xCD – LOVE105CD}CD1 – Wonderland3 – Hardnoise.wav

Peak level 96.5 %
Extraction speed 1.6 X
Track quality 99.9 %
Test CRC 86923A18
Copy CRC 86923A18
Track not present in AccurateRip database
Copy OK

Track 4

Filename C:XBTMusicDemdike Stare – Wonderland (2016) [FLAC] {3xCD – LOVE105CD}CD1 – Wonderland4 – Blue.wav

Peak level 96.5 %
Extraction speed 1.2 X
Track quality 100.0 %
Test CRC FE70E77B
Copy CRC FE70E77B
Track not present in AccurateRip database
Copy OK

Track 5

Filename C:XBTMusicDemdike Stare – Wonderland (2016) [FLAC] {3xCD – LOVE105CD}CD1 – Wonderland5 – FullEdge (eMpTy-40 Mix).wav

Peak level 96.5 %
Extraction speed 1.8 X
Track quality 100.0 %
Test CRC 969F8346
Copy CRC 969F8346
Track not present in AccurateRip database
Copy OK

Track 6

Filename C:XBTMusicDemdike Stare – Wonderland (2016) [FLAC] {3xCD – LOVE105CD}CD1 – Wonderland6 – Sourcer.wav

Peak level 96.5 %
Extraction speed 1.9 X
Track quality 100.0 %
Test CRC BC7C52D0
Copy CRC BC7C52D0
Track not present in AccurateRip database
Copy OK

Track 7

Filename C:XBTMusicDemdike Stare – Wonderland (2016) [FLAC] {3xCD – LOVE105CD}CD1 – Wonderland7 – Airborne Latency.wav

Peak level 96.5 %
Extraction speed 2.1 X
Track quality 100.0 %
Test CRC 9CC80846
Copy CRC 9CC80846
Track not present in AccurateRip database
Copy OK

Track 8

Filename C:XBTMusicDemdike Stare – Wonderland (2016) [FLAC] {3xCD – LOVE105CD}CD1 – Wonderland8 – Fridge Challenge.wav

Peak level 62.8 %
Extraction speed 1.8 X
Track quality 99.9 %
Test CRC 0143A3C5
Copy CRC 0143A3C5
Track not present in AccurateRip database
Copy OK

Track 9

Filename C:XBTMusicDemdike Stare – Wonderland (2016) [FLAC] {3xCD – LOVE105CD}CD1 – Wonderland9 – Overstaying.wav

Peak level 96.5 %
Extraction speed 2.3 X
Track quality 100.0 %
Test CRC AD22E716
Copy CRC AD22E716
Track not present in AccurateRip database
Copy OK

None of the tracks are present in the AccurateRip database

No errors occurred

End of status report

–– CUETools DB Plugin V2.1.6

[CTDB TOCID: UutgRzu5KzB10A9D3MvUppW58wU-] found
Submit result: UutgRzu5KzB10A9D3MvUppW58wU- has been confirmed
Track | CTDB Status
1 | (9/9) Accurately ripped
2 | (9/9) Accurately ripped
3 | (9/9) Accurately ripped
4 | (9/9) Accurately ripped
5 | (9/9) Accurately ripped
6 | (9/9) Accurately ripped
7 | (9/9) Accurately ripped
8 | (9/9) Accurately ripped
9 | (9/9) Accurately ripped

==== Log checksum 4798EE091B275C102E2C945001A58CF86B7826C7B902D6B2F6369BD71A248709 ====

CD2 Testpressings#001-003

01. Collision (from Testpressing #001)
02. Misappropriation (from Testpressing #001)
03. Grows Without Bound (from Testpressing #002)
04. Primitive Equations (from Testpressing #002)
05. Eulogy (from Testpressing #003)
06. Dyslogy (from Testpressing #003)

EAC
Exact Audio Copy V1.1 from 23. June 2015

EAC extraction logfile from 25. December 2016, 3:40

Demdike Stare / Testpressings #001-003

Used drive : HL-DT-STDVDRAM GP40NB40 Adapter: 1 ID: 1

Read mode : Secure
Utilize accurate stream : Yes
Defeat audio cache : Yes
Make use of C2 pointers : No

Read offset correction : 6
Overread into Lead-In and Lead-Out : No
Fill up missing offset samples with silence : Yes
Delete leading and trailing silent blocks : No
Null samples used in CRC calculations : Yes
Used interface : Native Win32 interface for Win NT & 2000
Gap handling : Appended to previous track

Used output format : User Defined Encoder
Selected bitrate : 1024 kBit/s
Quality : High
Add ID3 tag : No
Command line compressor : C:Program Files (x86)Exact Audio CopyFlacflac.exe
Additional command line options : -8 -V -T "ARTIST=%artist%" -T "TITLE=%title%" -T "ALBUM=%albumtitle%" -T "DATE=%year%" -T "TRACKNUMBER=%tracknr%" -T "TOTALTRACKS=%numtracks%" -T "GENRE=%genre%" -T "ALBUMARTIST=%albumartist%" -T "ALBUM ARTIST=%albumartist%" -T "COMMENT=EAC Secure Mode, Test & Copy, AccurateRip, FLAC -8" %source%

TOC of the extracted CD

Track | Start | Length | Start sector | End sector
––––––––––––––––––––––––––––-
1 | 0:00.00 | 8:12.47 | 0 | 36946
2 | 8:12.47 | 7:56.37 | 36947 | 72683
3 | 16:09.09 | 6:22.20 | 72684 | 101353
4 | 22:31.29 | 8:27.55 | 101354 | 139433
5 | 30:59.09 | 7:09.37 | 139434 | 171645
6 | 38:08.46 | 10:25.45 | 171646 | 218565

Track 1

Filename C:XBTMusicDemdike Stare – Wonderland (2016) [FLAC] {3xCD – LOVE105CD}CD2 – Testpressings #001-0031 – Collision.wav

Pre-gap length 0:00:02.00

Peak level 98.7 %
Extraction speed 1.3 X
Track quality 100.0 %
Test CRC 08F77F9A
Copy CRC 08F77F9A
Track not present in AccurateRip database
Copy OK

Track 2

Filename C:XBTMusicDemdike Stare – Wonderland (2016) [FLAC] {3xCD – LOVE105CD}CD2 – Testpressings #001-0032 – Misappropriation.wav

Peak level 99.6 %
Extraction speed 1.5 X
Track quality 100.0 %
Test CRC 07D9D138
Copy CRC 07D9D138
Track not present in AccurateRip database
Copy OK

Track 3

Filename C:XBTMusicDemdike Stare – Wonderland (2016) [FLAC] {3xCD – LOVE105CD}CD2 – Testpressings #001-0033 – Grows Without Bound.wav

Peak level 98.7 %
Extraction speed 1.7 X
Track quality 100.0 %
Test CRC 5BF8A686
Copy CRC 5BF8A686
Track not present in AccurateRip database
Copy OK

Track 4

Filename C:XBTMusicDemdike Stare – Wonderland (2016) [FLAC] {3xCD – LOVE105CD}CD2 – Testpressings #001-0034 – Primitive Equations.wav

Peak level 97.6 %
Extraction speed 1.9 X
Track quality 100.0 %
Test CRC 5830D556
Copy CRC 5830D556
Track not present in AccurateRip database
Copy OK

Track 5

Filename C:XBTMusicDemdike Stare – Wonderland (2016) [FLAC] {3xCD – LOVE105CD}CD2 – Testpressings #001-0035 – Eulogy.wav

Peak level 94.5 %
Extraction speed 2.0 X
Track quality 100.0 %
Test CRC 596C8481
Copy CRC 596C8481
Track not present in AccurateRip database
Copy OK

Track 6

Filename C:XBTMusicDemdike Stare – Wonderland (2016) [FLAC] {3xCD – LOVE105CD}CD2 – Testpressings #001-0036 – Dyslogy.wav

Peak level 96.8 %
Extraction speed 2.3 X
Track quality 100.0 %
Test CRC 95831416
Copy CRC 95831416
Track not present in AccurateRip database
Copy OK

None of the tracks are present in the AccurateRip database

No errors occurred

End of status report

–– CUETools DB Plugin V2.1.6

[CTDB TOCID: 9VUagUqzqT70U.2r2MTect70rdU-] found
Submit result: 9VUagUqzqT70U.2r2MTect70rdU- has been confirmed
Track | CTDB Status
1 | (8/8) Accurately ripped
2 | (8/8) Accurately ripped
3 | (8/8) Accurately ripped
4 | (8/8) Accurately ripped
5 | (8/8) Accurately ripped
6 | (8/8) Accurately ripped

==== Log checksum 3A305864ADFC58DE60DCEB8AC6497660B4C7F35AD07223BF173F4AE05BE134DA ====

CD3 Testpressings#004-007

01. Fail (from Testpressing #004)
02. Null Results (from Testpressing #004)
03. Procrastination (from Testpressing #005)
04. Past Majesty (from Testpressing #005)
05. 40 Years Under The Cosh (from Testpressing #006)
06. Frontin’ (from Testpressing #006)
07. Rathe (from Testpressing #007)
08. Patchwork (from Testpressing #007)

EAC
Exact Audio Copy V1.1 from 23. June 2015

EAC extraction logfile from 25. December 2016, 4:59

Demdike Stare / Testpressings #004-007

Used drive : HL-DT-STDVDRAM GP40NB40 Adapter: 1 ID: 1

Read mode : Secure
Utilize accurate stream : Yes
Defeat audio cache : Yes
Make use of C2 pointers : No

Read offset correction : 6
Overread into Lead-In and Lead-Out : No
Fill up missing offset samples with silence : Yes
Delete leading and trailing silent blocks : No
Null samples used in CRC calculations : Yes
Used interface : Native Win32 interface for Win NT & 2000
Gap handling : Appended to previous track

Used output format : User Defined Encoder
Selected bitrate : 1024 kBit/s
Quality : High
Add ID3 tag : No
Command line compressor : C:Program Files (x86)Exact Audio CopyFlacflac.exe
Additional command line options : -8 -V -T "ARTIST=%artist%" -T "TITLE=%title%" -T "ALBUM=%albumtitle%" -T "DATE=%year%" -T "TRACKNUMBER=%tracknr%" -T "TOTALTRACKS=%numtracks%" -T "GENRE=%genre%" -T "ALBUMARTIST=%albumartist%" -T "ALBUM ARTIST=%albumartist%" -T "COMMENT=EAC Secure Mode, Test & Copy, AccurateRip, FLAC -8" %source%

TOC of the extracted CD

Track | Start | Length | Start sector | End sector
––––––––––––––––––––––––––––-
1 | 0:00.00 | 8:20.69 | 0 | 37568
2 | 8:20.69 | 7:46.09 | 37569 | 72527
3 | 16:07.03 | 6:42.19 | 72528 | 102696
4 | 22:49.22 | 5:48.45 | 102697 | 128841
5 | 28:37.67 | 6:09.64 | 128842 | 156580
6 | 34:47.56 | 6:10.11 | 156581 | 184341
7 | 40:57.67 | 6:27.26 | 184342 | 213392
8 | 47:25.18 | 6:40.41 | 213393 | 243433

Track 1

Filename C:XBTMusicDemdike Stare – Wonderland (2016) [FLAC] {3xCD – LOVE105CD}CD3 – Testpressings #004-0071 – Fail.wav

Pre-gap length 0:00:02.00

Peak level 96.7 %
Extraction speed 1.3 X
Track quality 100.0 %
Test CRC F4949A36
Copy CRC F4949A36
Track not present in AccurateRip database
Copy OK

Track 2

Filename C:XBTMusicDemdike Stare – Wonderland (2016) [FLAC] {3xCD – LOVE105CD}CD3 – Testpressings #004-0072 – Null Results.wav

Peak level 96.6 %
Extraction speed 1.4 X
Track quality 99.9 %
Test CRC 4F1F03FB
Copy CRC 4F1F03FB
Track not present in AccurateRip database
Copy OK

Track 3

Filename C:XBTMusicDemdike Stare – Wonderland (2016) [FLAC] {3xCD – LOVE105CD}CD3 – Testpressings #004-0073 – Procrastination.wav

Peak level 96.6 %
Extraction speed 1.7 X
Track quality 100.0 %
Test CRC EB197C33
Copy CRC EB197C33
Track not present in AccurateRip database
Copy OK

Track 4

Filename C:XBTMusicDemdike Stare – Wonderland (2016) [FLAC] {3xCD – LOVE105CD}CD3 – Testpressings #004-0074 – Past Majesty.wav

Peak level 96.6 %
Extraction speed 1.7 X
Track quality 99.9 %
Test CRC E7575955
Copy CRC E7575955
Track not present in AccurateRip database
Copy OK

Track 5

Filename C:XBTMusicDemdike Stare – Wonderland (2016) [FLAC] {3xCD – LOVE105CD}CD3 – Testpressings #004-0075 – 40 Years Under The Cosh.wav

Peak level 96.6 %
Extraction speed 1.8 X
Track quality 99.9 %
Test CRC 80C8EDC5
Copy CRC 80C8EDC5
Track not present in AccurateRip database
Copy OK

Track 6

Filename C:XBTMusicDemdike Stare – Wonderland (2016) [FLAC] {3xCD – LOVE105CD}CD3 – Testpressings #004-0076 – Frontin’.wav

Peak level 96.6 %
Extraction speed 1.9 X
Track quality 99.9 %
Test CRC 138A7145
Copy CRC 138A7145
Track not present in AccurateRip database
Copy OK

Track 7

Filename C:XBTMusicDemdike Stare – Wonderland (2016) [FLAC] {3xCD – LOVE105CD}CD3 – Testpressings #004-0077 – Rathe.wav

Peak level 96.6 %
Extraction speed 2.2 X
Track quality 100.0 %
Test CRC 9B1867FB
Copy CRC 9B1867FB
Track not present in AccurateRip database
Copy OK

Track 8

Filename C:XBTMusicDemdike Stare – Wonderland (2016) [FLAC] {3xCD – LOVE105CD}CD3 – Testpressings #004-0078 – Patchwork.wav

Peak level 96.6 %
Extraction speed 2.3 X
Track quality 100.0 %
Test CRC BBB0B4D8
Copy CRC BBB0B4D8
Track not present in AccurateRip database
Copy OK

None of the tracks are present in the AccurateRip database

No errors occurred

End of status report

–– CUETools DB Plugin V2.1.6

[CTDB TOCID: YzOkM4MpLohJlEIvbiBvZlDW43o-] found
Submit result: YzOkM4MpLohJlEIvbiBvZlDW43o- has been confirmed
Track | CTDB Status
1 | (9/9) Accurately ripped
2 | (9/9) Accurately ripped
3 | (9/9) Accurately ripped
4 | (9/9) Accurately ripped
5 | (9/9) Accurately ripped
6 | (9/9) Accurately ripped
7 | (9/9) Accurately ripped
8 | (9/9) Accurately ripped

==== Log checksum 291C01A9DAE3352D2DA7F5E072B252E83941943CAF6F77FC26D16DB472B1E55B ====

All thanks go to the original releaser

Demdike Stare – Wonderland (3CD Deluxe Edition) (2016) Download, Warez, DDL, Free, Full Album, Torrent, Legal.

Tags:

  • demdike stare wonderland 3cd
Download