Deion Cho – Latin American Guitar Music (2016)

Download
Deion Cho - Latin American Guitar Music (2016)

Deion Cho – Latin American Guitar Music (2016)
EAC | FLAC (image+.cue, log) | Covers Included | 69:42 | 275 MB
Genre: Classical | Label: Brilliant Classics | Catalog: 95094

This young guitarists debut album is the perfect introduction to his artistry, showcasing as it does four leading 20th-century composers of guitar music Antonio José Palacios, Alberto Ginastera, Antonio Lauro and Julio Gentil Montaña composers who in turn represent four different countries and four styles of music that differ widely both aesthetically and in terms of the traditions from which they spring. Among the most promising Spanish composers of his generation, Antonio José was acclaimed by Ravel and counted Lorca and Dali among his associates, but like Lorca, he was executed by a Falangist firing squad during the Spanish Civil War. Only 34 years of age, he had accumulated a catalogue of music impressive not only for its depth but its sophistication, exemplified by the substantial Guitar Sonata which is his best-known work. The Sonata by the Argentine Alberto Ginastera is no less imposing in structure, and harmonically much more adventurous than Josés bluesy neo-classicism. The four Venezuelan waltzes by Antonio Lauro are brief and charming early works, the first three dedicated to his daughter and two nieces, the last named Yacambú after an orchid-rich national park in the northern Andes. The first movement of the fourth Colombian Suite by Julio Gentil Montaña (1942-2011) is likewise named after that countrys capital, Bogotà, and it is followed by three interpretations of national dances, concluding with a snappy Porro. The 23-year-old Deion Cho is of South Korean origin, currently studying and working in Spain. He has given the album his signature with an arrangement of a popular Korean folksong, About 500 Years, clearly inflected by his years of work in Hispanic and Iberian music. This is the CD debut of Korean guitarist Deion Cho, first prize winner of the Concorso Internacional de Guitarra Clásica Gredos San Diego. For his first CD Cho chose 4 leading 20-th century guitar composers, differing in style and tradition: Ginastera, Lauro, Montaña and Martínez Palacios. Although all originating from South America the composers styles differ greatly: from the neoclassical idiom to folk inspired, from charming Waltzes to harsh expressionism. All these dazzling, attractive works make full use of the resources of the guitar and show the prodigious gift of this young virtuoso, Deion Cho.

AllMusic

Deion Cho - Latin American Guitar Music (2016)

Track List:

Antonio José Martínez Palacios (1902-1936)
[1] Romancillo Infantil
[2]-[5] Sonata para guitarra
Antonio Lauro (1917-1986)
[6]-[9] Cuatro valses venezolanos
Julio Gentil Montaña (1942-2011)
[10]-[13] Suite Colombiana No.4
Alberto Ginastera (1916-1983)
[14]-[17] Sonata for Guitar, Op.47
[18] Traditional Korean folk song ‘Unos 500 años’
(arr. Deion Cho)

Performers:
Deion Cho, guitar

EAC Log
Exact Audio Copy V1.1 from 23. June 2015

EAC extraction logfile from 4. October 2016, 22:41

Deion Cho / Latin American Guitar Music

Used drive : HL-DT-STDVDRAM GU70N Adapter: 1 ID: 0

Read mode : Secure
Utilize accurate stream : Yes
Defeat audio cache : Yes
Make use of C2 pointers : No

Read offset correction : 48
Overread into Lead-In and Lead-Out : No
Fill up missing offset samples with silence : Yes
Delete leading and trailing silent blocks : No
Null samples used in CRC calculations : Yes
Used interface : Native Win32 interface for Win NT & 2000

Used output format : User Defined Encoder
Selected bitrate : 128 kBit/s
Quality : High
Add ID3 tag : No
Command line compressor : C:Program Files (x86)Exact Audio CopyFlacflac.exe
Additional command line options : -V -8 -T "Date=%year%" -T "Genre=%genre%" %source%

TOC of the extracted CD

Track | Start | Length | Start sector | End sector
––––––––––––––––––––––––––––-
1 | 0:00.00 | 4:08.10 | 0 | 18609
2 | 4:08.10 | 7:29.60 | 18610 | 52344
3 | 11:37.70 | 4:41.37 | 52345 | 73456
4 | 16:19.32 | 5:58.03 | 73457 | 100309
5 | 22:17.35 | 5:03.22 | 100310 | 123056
6 | 27:20.57 | 1:08.39 | 123057 | 128195
7 | 28:29.21 | 1:06.13 | 128196 | 133158
8 | 29:35.34 | 1:38.21 | 133159 | 140529
9 | 31:13.55 | 3:12.66 | 140530 | 154995
10 | 34:26.46 | 4:29.53 | 154996 | 175223
11 | 38:56.24 | 6:25.00 | 175224 | 204098
12 | 45:21.24 | 4:41.17 | 204099 | 225190
13 | 50:02.41 | 4:43.06 | 225191 | 246421
14 | 54:45.47 | 3:48.02 | 246422 | 263523
15 | 58:33.49 | 2:46.10 | 263524 | 275983
16 | 61:19.59 | 3:22.03 | 275984 | 291136
17 | 64:41.62 | 2:07.58 | 291137 | 300719
18 | 66:49.45 | 2:51.05 | 300720 | 313549

Range status and errors

Selected range

Filename C:tempLatin American Guitar Music – Deion ChoLatin American Guitar Music.wav

Peak level 99.9 %
Extraction speed 2.2 X
Range quality 100.0 %
Test CRC 983D35F1
Copy CRC 983D35F1
Copy OK

No errors occurred

AccurateRip summary

Track 1 not present in database
Track 2 not present in database
Track 3 not present in database
Track 4 not present in database
Track 5 not present in database
Track 6 not present in database
Track 7 not present in database
Track 8 not present in database
Track 9 not present in database
Track 10 not present in database
Track 11 not present in database
Track 12 not present in database
Track 13 not present in database
Track 14 not present in database
Track 15 not present in database
Track 16 not present in database
Track 17 not present in database
Track 18 not present in database

None of the tracks are present in the AccurateRip database

End of status report

==== Log checksum 93490185E246AFB16931E78AB54B188534A68907C4CB63716E4DA9BEBDD34271 ====

Thanks to the Original ripper A-Z!

Download:

Deion Cho – Latin American Guitar Music (2016) Download, Warez, DDL, Free, Full Album, Torrent, Legal.

Download