Deep Purple – Power House (1977) [Vinyl Rip 16/44 & mp3-320] | ViralVideoPk

Daily Dose of Free Downloads

Deep Purple – Power House (1977) [Vinyl Rip 16/44 & mp3-320]

Download

Deep Purple - Power House (1977) [Vinyl Rip 16/44 & mp3-320]

Deep Purple – Power House (1977)
Vinyl Rip 16/44 | Flac(Image + Cue) > 261 Mb
MP3 CBR 320Kbps > 102 Mb | Artwork(jpg) > 32 Mb
Warner-Pioneer Corporation | P-10444W
Hard Rock / Blues rock

Powerhouse is a 1977 compilation album by Deep Purple, featuring previously unreleased live and studio tracks from the band’s Mark II line-up at the height of its powers. The album achieved Gold Certification in Japan…

~ wiki

Deep Purple – Power House (1977):

Deep Purple - Power House (1977) [Vinyl Rip 16/44 & mp3-320]

Tracklist:

01. Painted Horse [05:18]
02. Hush [04:38]
03. Wring That Neck [12:49]
04. Child In Time [12:28]
05. Black Night [04:59]
06. Cry Free [03:10]

DR Log
foobar2000 1.2.9 / Dynamic Range Meter 1.1.1
log date: 2017-01-13 12:16:36

––––––––––––––––––––––––––––––––––––––––
Analyzed: DEEP PURPLE / Power House ( P-10444W )
––––––––––––––––––––––––––––––––––––––––

DR Peak RMS Duration Track
––––––––––––––––––––––––––––––––––––––––
DR11 -2.31 dB -16.18 dB 5:18 01-Painted Horse
DR11 -2.23 dB -16.32 dB 4:38 02-Hush
DR12 -2.47 dB -19.41 dB 12:49 03-Wring That Neck
DR12 -0.22 dB -16.05 dB 12:28 04-Child In Time
DR10 -1.20 dB -12.77 dB 4:59 05-Black Night
DR9 -2.97 dB -14.21 dB 3:11 06-Cry Free
––––––––––––––––––––––––––––––––––––––––

Number of tracks: 6
Official DR value: DR11

Samplerate: 44100 Hz
Channels: 2
Bits per sample: 16
Bitrate: 816 kbps
Codec: FLAC

Deep Purple - Power House (1977) [Vinyl Rip 16/44 & mp3-320]

All thanks go to the original releaser

Sade: Discography (1984 – 2010) [Vinyl Rip 16/44 & MP3-320]

Queen: Collection (1973 – 1995) [Vinyl Rip 16/44 & MP3-320]

Metallica: Discography (1983 – 2016) [Vinyl Rip 16/44 & mp3-320]

The Doors: Collection (1967 – 1971) [Vinyl Rip 16/44 & mp3-320]

The Beatles: Discography (1963 – 1988) [Vinyl Rip 16/44 & mp3-320]

Joe Cocker: Collection (1969 – 1991) [Vinyl Rip 16/44 & mp3-320]

Dire Straits: Discography (1978 – 1991) [Vinyl Rip 16/44 & mp3-320]

Bonnie Tyler: Collection (1977 – 1986) [Vinyl Rip 16/44 & mp3-320]

Depeche Mode: Collection (1981 – 2013) [Vinyl Rip 16/44 & mp3-320]

Deep Purple in my Blog

Download Deep Purple – Power House (1977):

Deep Purple – Power House (1977) [Vinyl Rip 16/44 & mp3-320] Download, Warez, DDL, Free, Full Album, Torrent, Legal.

Download


  • Recent Posts

  • Recent Tags