Deep Purple – Burn (1974) {2005, 30th Anniversary Edition, Japanese Reissue, Remastered}

Download
Deep Purple - Burn (1974) {2005, 30th Anniversary Edition, Japanese Reissue, Remastered}

Deep Purple – Burn (1974) {2005, 30th Anniversary Edition, Japanese Reissue, Remastered}
EAC Rip | WV (Img) + Cue + Log ~ 516 Mb | MP3 CBR320 ~ 178 Mb
Scans Included (JPG, 300 dpi) | RAR 5% Recovery
Hard Rock | Warner-Pioneer #WPCR-12019

Although it shook the band’s fan base to its core, the acrimonious departure of vocalist Ian Gillan and bassist Roger Glover served to rejuvenate Deep Purple in time for 1973’s aptly named Burn album, which unquestionably showed huge improvement over their lackluster previous effort, Who Do We Think We Are. And in an interesting twist rarely attempted before or since, new recruits David Coverdale (vocals) and Glenn Hughes (bass and vocals, ex-Trapeze) traded lead singing duties on virtually every one of its songs – an enviable tag team, as both possessed exceptional pipes. The phenomenal title track started things off at full throttle, actually challenging the seminal "Highway Star" for the honor of best opener to any Deep Purple album, while showcasing the always impressive drumming of Ian Paice. Up next, the intro to the equally timeless "Might Just Take Your Life," however simple from a technical perspective, remains one of organist Jon Lord’s signature moments; and the downright nasty "Lay Down, Stay Down" roared behind wildly careening starts and stops and a fantastic Ritchie Blackmore guitar solo which left no doubt as to who was the band’s primal force, regardless of lineup. Moving right along, though it was rarely included in later-day greatest hits sets, "What’s Going on Here" was about as good a single as Purple ever wrote; "You Fool No One" was compelling for its sheer intensity; and the funky "Sail Away" was a sign of the band’s direction in years to come. Lastly, the fantastic slow-boiling blues of "Mistreated" closed the album proper (let’s ignore the record’s only throw-away track – boring final instrumental "A 200") with a command solo performance from Coverdale, as nuanced and sensitive as it was devastating. So impassioned was the singer’s delivery, in fact, that the song would remain his personal, in-concert trademark with Whitesnake, long after his tenure with Deep Purple came to a close. Like the vast majority of Burn this song’s greatness qualifies it for the highest echelons of hard rock achievement, and therefore ranks as an essential item in the discography of any self-respecting music fan. This 30th anniversary edition of the album includes five bonus tracks: an instrumental B-side plus remixes of "Burn," "Mistreated," "You Fool No One," and "Sail Away."

~ Eduardo Rivadavia, All Music
Discogs | All Music

***************

Deep Purple - Burn (1974) {2005, 30th Anniversary Edition, Japanese Reissue, Remastered}

Track List:

01. Burn [0:06:04.70]
02. Might Just Take Your Life [0:04:40.35]
03. Lay Down, Stay Down [0:04:20.35]
04. Sail Away [0:05:52.22]
05. You Fool No One [0:04:47.68]
06. What’s Going On Here [0:04:58.00]
07. Mistreated [0:07:28.25]
08. "A" 200 [0:04:16.40]
Bonus Tracks
09. Coronarias Redig (2004 Remix) [0:05:32.12]
10. Burn (2004 Remix) [0:06:03.68]
11. Mistreated (2004 Remix) [0:07:29.50]
12. You Fool No One (2004 Remix) [0:04:58.72]
13. Sail Away (2004 Remix) [0:05:36.15]

Personnel:
Ritchie Blackmore – guitar
Jon Lord – keyboards, synthesizers
Ian Paice – drums
David Coverdale – vocals
Glenn Hughes – bass guitar, vocals

EAC Log
Exact Audio Copy V1.2 from 12. August 2016

EAC extraction logfile from 9. February 2017, 15:38

Deep Purple / Burn [WPCR-12019]

Used drive : HL-DT-STBD-RE BH10LS38 Adapter: 1 ID: 1

Read mode : Secure
Utilize accurate stream : Yes
Defeat audio cache : Yes
Make use of C2 pointers : No

Read offset correction : 667
Overread into Lead-In and Lead-Out : No
Fill up missing offset samples with silence : Yes
Delete leading and trailing silent blocks : No
Null samples used in CRC calculations : Yes
Used interface : Installed external ASPI interface

Used output format : User Defined Encoder
Selected bitrate : 128 kBit/s
Quality : High
Add ID3 tag : No
Command line compressor : C:Program Files (x86)Exact Audio Copywavpack-4.60.1wavpack.exe
Additional command line options : -hm -w "Year=%year%" -w "Genre=%genre%" %source% %dest%

TOC of the extracted CD

Track | Start | Length | Start sector | End sector
––––––––––––––––––––––––––––-
1 | 0:00.00 | 6:04.70 | 0 | 27369
2 | 6:04.70 | 4:40.35 | 27370 | 48404
3 | 10:45.30 | 4:20.35 | 48405 | 67939
4 | 15:05.65 | 5:52.22 | 67940 | 94361
5 | 20:58.12 | 4:47.68 | 94362 | 115954
6 | 25:46.05 | 4:58.00 | 115955 | 138304
7 | 30:44.05 | 7:28.25 | 138305 | 171929
8 | 38:12.30 | 4:16.40 | 171930 | 191169
9 | 42:28.70 | 5:32.12 | 191170 | 216081
10 | 48:01.07 | 6:03.68 | 216082 | 243374
11 | 54:05.00 | 7:29.50 | 243375 | 277099
12 | 61:34.50 | 4:58.72 | 277100 | 299521
13 | 66:33.47 | 5:36.15 | 299522 | 324736

Range status and errors

Selected range

Filename G:Rips by AlderDeep Purple – Burn [WPCR-12019].wav

Peak level 100.0 %
Extraction speed 7.8 X
Range quality 100.0 %
Test CRC 46E65B44
Copy CRC 46E65B44
Copy OK

No errors occurred

AccurateRip summary

Track 1 accurately ripped (confidence 49) [84168D62] (AR v2)
Track 2 accurately ripped (confidence 49) [461CCC42] (AR v2)
Track 3 accurately ripped (confidence 49) [FB34EE14] (AR v2)
Track 4 accurately ripped (confidence 49) [3D3366BD] (AR v2)
Track 5 accurately ripped (confidence 49) [462615B5] (AR v2)
Track 6 accurately ripped (confidence 49) [4D8D7402] (AR v2)
Track 7 accurately ripped (confidence 49) [ACD97465] (AR v2)
Track 8 accurately ripped (confidence 49) [5E2B57BE] (AR v2)
Track 9 accurately ripped (confidence 48) [022F6864] (AR v2)
Track 10 accurately ripped (confidence 47) [4525B18B] (AR v2)
Track 11 accurately ripped (confidence 47) [7D9A9D63] (AR v2)
Track 12 accurately ripped (confidence 47) [C201A291] (AR v2)
Track 13 accurately ripped (confidence 42) [DCCC31C6] (AR v2)

All tracks accurately ripped

End of status report

–– CUETools DB Plugin V2.1.6

[CTDB TOCID: 6_aWjwlbS9ZlMd48EoFOjxhBJsU-] found
Submit result: 6_aWjwlbS9ZlMd48EoFOjxhBJsU- has been confirmed
Track | CTDB Status
1 | (351/378) Accurately ripped
2 | (351/378) Accurately ripped
3 | (351/378) Accurately ripped
4 | (353/378) Accurately ripped
5 | (352/378) Accurately ripped
6 | (353/378) Accurately ripped
7 | (352/378) Accurately ripped
8 | (351/378) Accurately ripped, or (3/378) differs in 60 samples @01:23:00-01:23:01
9 | (354/378) Accurately ripped
10 | (354/378) Accurately ripped
11 | (346/378) Accurately ripped
12 | (352/378) Accurately ripped
13 | (345/378) Accurately ripped

==== Log checksum 531EDB1B311DBD2B18C81D8CD20DE9FDF716643A2C76C5CFFFB331A519DAD70C ====

DR Log
foobar2000 1.2.6 / Dynamic Range Meter 1.1.1
log date: 2017-02-09 23:59:06

––––––––––––––––––––––––––––––––––––––––
Analyzed: Deep Purple / Burn [WPCR-12019]
––––––––––––––––––––––––––––––––––––––––

DR Peak RMS Duration Track
––––––––––––––––––––––––––––––––––––––––
DR9 -0.07 dB -10.79 dB 6:05 01-Burn
DR9 -0.07 dB -10.52 dB 4:40 02-Might Just Take Your Life
DR9 -0.07 dB -10.10 dB 4:20 03-Lay Down, Stay Down
DR9 -0.07 dB -10.55 dB 5:52 04-Sail Away
DR9 -0.07 dB -10.08 dB 4:48 05-You Fool No One
DR9 0.00 dB -10.44 dB 4:58 06-What’s Going On Here
DR8 -0.07 dB -11.20 dB 7:28 07-Mistreated
DR9 -0.07 dB -10.81 dB 4:17 08-‘A’ 200
DR10 -0.08 dB -11.74 dB 5:32 09-Coronarias Redig (2004 Remix)
DR7 -0.07 dB -9.17 dB 6:04 10-Burn (2004 Remix)
DR9 -0.07 dB -11.36 dB 7:30 11-Mistreated (2004 Remix)
DR9 -0.33 dB -10.66 dB 4:59 12-You Fool No One (2004 Remix)
DR9 0.00 dB -11.21 dB 5:36 13-Sail Away (2004 Remix)
––––––––––––––––––––––––––––––––––––––––

Number of tracks: 13
Official DR value: DR9

Samplerate: 44100 Hz
Channels: 2
Bits per sample: 16
Bitrate: 942 kbps
Codec: WavPack
================================================================================

CUETools Log
[CUETools log; Date: 09.02.2017 23:59:19; Version: 2.1.5]
[CTDB TOCID: 6_aWjwlbS9ZlMd48EoFOjxhBJsU-] found.
Track | CTDB Status
1 | (352/379) Accurately ripped
2 | (352/379) Accurately ripped
3 | (352/379) Accurately ripped
4 | (354/379) Accurately ripped
5 | (353/379) Accurately ripped
6 | (354/379) Accurately ripped
7 | (353/379) Accurately ripped
8 | (352/379) Accurately ripped, or (3/379) differs in 60 samples @01:23:00-01:23:01
9 | (355/379) Accurately ripped
10 | (355/379) Accurately ripped
11 | (347/379) Accurately ripped
12 | (353/379) Accurately ripped
13 | (346/379) Accurately ripped
[AccurateRip ID: 0021d13d-01545f32-d410e90d] found.
Track [ CRC | V2 ] Status
01 [14dc6fad|84168d62] (064+049/448) Accurately ripped
02 [aa2edb71|461ccc42] (062+049/445) Accurately ripped
03 [09579525|fb34ee14] (065+049/447) Accurately ripped
04 [49f57a40|3d3366bd] (065+049/445) Accurately ripped
05 [a6da39ce|462615b5] (064+049/447) Accurately ripped
06 [79fdecbd|4d8d7402] (065+049/446) Accurately ripped
07 [d3c1dc4e|acd97465] (064+049/449) Accurately ripped
08 [ec9666dd|5e2b57be] (065+049/448) Accurately ripped
09 [1d6db9e6|022f6864] (063+048/441) Accurately ripped
10 [2d947b12|4525b18b] (063+047/433) Accurately ripped
11 [c2252e9b|7d9a9d63] (062+047/432) Accurately ripped
12 [5a496dd0|c201a291] (061+047/431) Accurately ripped
13 [eed5e037|dccc31c6] (055+042/417) Accurately ripped
Offsetted by -670:
01 [3db16ac9] (002/448) Accurately ripped
02 [d9982e37] (002/445) Accurately ripped
03 [60f47ddf] (002/447) Accurately ripped
04 [76431f26] (002/445) Accurately ripped
05 [9e353f2f] (002/447) Accurately ripped
06 [ace7a718] (002/446) Accurately ripped
07 [3eea5ea8] (002/449) Accurately ripped
08 [63ffe30a] (002/448) Accurately ripped
09 [08395615] (002/441) Accurately ripped
10 [0c680b99] (002/433) Accurately ripped
11 [bd541edd] (002/432) Accurately ripped
12 [352fc709] (002/431) Accurately ripped
13 [137dc2c8] (002/417) Accurately ripped
Offsetted by -664:
01 [8dcc8b52] (004/448) Accurately ripped
02 [4cd8c91d] (004/445) Accurately ripped
03 [4f844667] (004/447) Accurately ripped
04 [55a2874c] (004/445) Accurately ripped
05 [630b6d4f] (004/447) Accurately ripped
06 [551af832] (004/446) Accurately ripped
07 [fc3ba3aa] (004/449) Accurately ripped
08 [926ada65] (004/448) Accurately ripped
09 [cdcb8e65] (004/441) Accurately ripped
10 [6155dfb7] (004/433) Accurately ripped
11 [c5210bb7] (004/432) Accurately ripped
12 [55f76e8c] (004/431) Accurately ripped
13 [8a256ced] (004/417) Accurately ripped
Offsetted by -86:
01 [11d9a728] (059/448) Accurately ripped
02 [efa28a14] (059/445) Accurately ripped
03 [68b6f7ae] (059/447) Accurately ripped
04 [be75ceb0] (058/445) Accurately ripped
05 [cc432c78] (058/447) Accurately ripped
06 [d0dda5de] (058/446) Accurately ripped
07 [e13954b9] (060/449) Accurately ripped
08 [325543d5] (059/448) Accurately ripped
09 [80e6e0cf] (059/441) Accurately ripped
10 [bb2fff8f] (056/433) Accurately ripped
11 [fb51db52] (056/432) Accurately ripped
12 [52ba7b72] (057/431) Accurately ripped
13 [4270beee] (056/417) Accurately ripped
Offsetted by -6:
01 [15052b63] (048/448) Accurately ripped
02 [c4e8a257] (046/445) Accurately ripped
03 [f143e33d] (046/447) Accurately ripped
04 [89c8e00a] (047/445) Accurately ripped
05 [36f8fda6] (048/447) Accurately ripped
06 [eddb9cf3] (047/446) Accurately ripped
07 [677d46ed] (047/449) Accurately ripped
08 [9ecb571e] (047/448) Accurately ripped
09 [c765f94b] (046/441) Accurately ripped
10 [1381412c] (044/433) Accurately ripped
11 [a67b14d0] (044/432) Accurately ripped
12 [32afd3eb] (043/431) Accurately ripped
13 [1670368d] (044/417) Accurately ripped
Offsetted by -646:
01 [d4debeaa] (000/448) No match (V2 was not tested)
02 [9f464df9] (000/445) No match (V2 was not tested)
03 [efd340c3] (000/447) No match (V2 was not tested)
04 [be878040] (000/445) No match (V2 was not tested)
05 [f3df9b40] (000/447) No match (V2 was not tested)
06 [82ea8f63] (000/446) No match (V2 was not tested)
07 [09e929e0] (000/449) No match (V2 was not tested)
08 [62487f4e] (000/448) No match (V2 was not tested)
09 [34eaf752] (000/441) No match (V2 was not tested)
10 [d2a602e3] (000/433) No match (V2 was not tested)
11 [a62b07eb] (000/432) No match (V2 was not tested)
12 [0732917c] (000/431) No match (V2 was not tested)
13 [05cb4d7d] (000/417) No match (V2 was not tested)
Offsetted by -134:
01 [fd77f420] (000/448) No match (V2 was not tested)
02 [53f2acff] (000/445) No match (V2 was not tested)
03 [4d93183a] (000/447) No match (V2 was not tested)
04 [c1958edf] (000/445) No match (V2 was not tested)
05 [7ff5abfe] (000/447) No match (V2 was not tested)
06 [c1080044] (000/446) No match (V2 was not tested)
07 [2d041984] (000/449) No match (V2 was not tested)
08 [5a4d183c] (000/448) No match (V2 was not tested)
09 [8624fd1a] (000/441) No match (V2 was not tested)
10 [321bda35] (000/433) No match (V2 was not tested)
11 [814f1fc3] (000/432) No match (V2 was not tested)
12 [0471c9cd] (000/431) No match (V2 was not tested)
13 [bc5b8eb8] (000/417) No match (V2 was not tested)
Offsetted by -116:
01 [dfdde3a0] (000/448) No match (V2 was not tested)
02 [c7d2d4b5] (000/445) No match (V2 was not tested)
03 [5f3e6fb4] (000/447) No match (V2 was not tested)
04 [46037cb8] (000/445) No match (V2 was not tested)
05 [3ad51ca1] (000/447) No match (V2 was not tested)
06 [a58db135] (000/446) No match (V2 was not tested)
07 [a1736e03] (000/449) No match (V2 was not tested)
08 [bcb12cd2] (000/448) No match (V2 was not tested)
09 [f28e5a2b] (000/441) No match (V2 was not tested)
10 [f4f5c07b] (000/433) No match (V2 was not tested)
11 [b863f139] (000/432) No match (V2 was not tested)
12 [0ee6ba8d] (000/431) No match (V2 was not tested)
13 [57897d0a] (000/417) No match (V2 was not tested)
Offsetted by -18:
01 [7b1aee68] (002/448) Accurately ripped
02 [096859f4] (002/445) Accurately ripped
03 [0e2a6da5] (002/447) Accurately ripped
04 [0a42bbbb] (000/445) No match (V2 was not tested)
05 [303c855e] (002/447) Accurately ripped
06 [2d24d250] (002/446) Accurately ripped
07 [e07226b3] (002/449) Accurately ripped
08 [26dc56d0] (002/448) Accurately ripped
09 [a7325a35] (002/441) Accurately ripped
10 [df3a307f] (002/433) Accurately ripped
11 [ea89e146] (002/432) Accurately ripped
12 [d48851f8] (002/431) Accurately ripped
13 [118c91a4] (002/417) Accurately ripped
Offsetted by 6:
01 [8dae8b55] (002/448) Accurately ripped
02 [0c606030] (000/445) No match (V2 was not tested)
03 [b939cdf3] (002/447) Accurately ripped
04 [0b0e2477] (002/445) Accurately ripped
05 [0931326b] (002/447) Accurately ripped
06 [9f86e047] (002/446) Accurately ripped
07 [a336d285] (002/449) Accurately ripped
08 [f2d837c8] (002/448) Accurately ripped
09 [efbd7a8f] (002/441) Accurately ripped
10 [690a132e] (002/433) Accurately ripped
11 [be7a0abc] (002/432) Accurately ripped
12 [a654b9cf] (002/431) Accurately ripped
13 [3865ea52] (002/417) Accurately ripped

Track Peak [ CRC32 ] [W/O NULL] [ LOG ]
– 100,0 [46E65B44] [05A545B6] CRC32
01 99,1 [84E6E5AA] [BB958334]
02 99,1 [E4F595A8] [514908F0]
03 99,2 [B9C9D735] [580F6AD9]
04 99,2 [76C1E1DB] [91AA2B16]
05 99,2 [A54E45DB] [4304D42F]
06 100,0 [7F94375F] [9AF44C8D]
07 99,2 [0AC0D6D1] [545176D8]
08 99,1 [3B8A47B1] [2FE5AB0E]
09 99,1 [AF1F796E] [14B28DA9]
10 99,2 [1F4D9D32] [0FE83BC0]
11 99,2 [5A34054E] [BA1C4104]
12 96,3 [7BE129DB] [778473C8]
13 100,0 [CD55900F] [DA656358]

Deep Purple - Burn (1974) {2005, 30th Anniversary Edition, Japanese Reissue, Remastered}

Deep Purple - Burn (1974) {2005, 30th Anniversary Edition, Japanese Reissue, Remastered}

All thanks go to Alder

> Deep Purple in my blog <

Deep Purple – Burn (1974) {2005, 30th Anniversary Edition, Japanese Reissue, Remastered} Download, Warez, DDL, Free, Full Album, Torrent, Legal.

Download