Dead Meadow – Got Live If You Want It! (2002) [Re-Up]

Download
Dead Meadow - Got Live If You Want It! (2002) [Re-Up]

Dead Meadow – Got Live If You Want It! (2002)
EAC | FLAC | Tracks (Cue&Log) ~ 313 Mb | Mp3 (CBR320) ~ 121 Mb | Scans included
Psychedelic Rock, Stoner Rock | Label: Bomp! | # EVIL-7 | Time: 00:47:01

An interesting and slightly unexpected release on the Brian Jonestown Massacre’s label – doubtless because Dead Meadow opened for that band, whose Anton Newcombe ended up providing the tapes – Got Live if You Want It! is, indeed, a show recording from a date in early 2002. The combination of sludge, drift and, in Jason Simon’s singing, a surprisingly easy-to-grasp melodicism that defines the group stands out pretty well here, and, while long-time fans might debate the virtues of these takes with the studio ones, this is definitely a great starting point for those new to the group. Most of the selections come from the self-titled EP – the only Howls from the Hills song is a mighty fine "Dusty Nothing" – and, as befits the band’s oldest songs, they sound well-seasoned in the group’s capable hands. Simon’s got it down as both a good singer and an even better guitarist; the odd semi-whine in his vocals might initially be a touch off-putting, but, by steering clear of more clichéd bellows or roars, it’s a great contrast to the heavy-psych mania that the trio kicks up. Although there are some understandable Black Sabbath comparisons to be made, it’s better to think of this music as coming from the moody smoke of that band’s era other than the Birmingham monsters specifically – plenty of wah-wah, just enough shivering semi-funk rhythms, and a feeling that there is no such thing as too much echo. "Good Moanin’" and the concluding "Rocky Mountain High" are two of the best numbers living up to that approach. Meanwhile, "Sleepy Silver Door" lives up to its title beautifully; it’s trippy in the best sense of the word, as Simon’s vocals cascade over the band’s full shuffling downward slide.

Review by Ned Raggett, Allmusic.com

Dead Meadow - Got Live If You Want It! (2002) [Re-Up]

Dead Meadow at Allmusic
Dead Meadow Website
Dead Meadow at Wiki

Tracklist:

01. Green Sky Green Lake (05:42)
02. Everything’s Goin On (03:15)
03. Good Moanin’ (04:47)
04. Sleepy Silver Door (07:29)
05. Beyond the Fields We Know (09:26)
06. Dusty Nothing (04:06)
07. Lady (04:46)
08. Rocky Mountain High (07:27)

EAC log
Exact Audio Copy V0.99 prebeta 5 from 4. May 2009

EAC extraction logfile from 17. August 2011, 18:14

Dead Meadow / Got Live If You Want It

Used drive : PIONEER DVD-RW DVR-118L Adapter: 2 ID: 0

Read mode : Secure
Utilize accurate stream : Yes
Defeat audio cache : Yes
Make use of C2 pointers : No

Read offset correction : 6
Overread into Lead-In and Lead-Out : No
Fill up missing offset samples with silence : Yes
Delete leading and trailing silent blocks : No
Null samples used in CRC calculations : Yes
Used interface : Native Win32 interface for Win NT & 2000
Gap handling : Appended to previous track

Used output format : User Defined Encoder
Selected bitrate : 128 kBit/s
Quality : High
Add ID3 tag : No
Command line compressor : C:Program Files (x86)Exact Audio CopyFlacflac.exe
Additional command line options : -8 -V -T "ARTIST=%a" -T "TITLE=%t" -T "ALBUM=%g" -T "DATE=%y" -T "TRACKNUMBER=%n" -T "GENRE=%m" -T "COMMENT=EAC FLAC -8" %s

TOC of the extracted CD

Track | Start | Length | Start sector | End sector
––––––––––––––––––––––––––––-
1 | 0:00.00 | 5:42.44 | 0 | 25693
2 | 5:42.44 | 3:15.23 | 25694 | 40341
3 | 8:57.67 | 4:47.50 | 40342 | 61916
4 | 13:45.42 | 7:29.14 | 61917 | 95605
5 | 21:14.56 | 9:26.37 | 95606 | 138092
6 | 30:41.18 | 4:06.10 | 138093 | 156552
7 | 34:47.28 | 4:46.11 | 156553 | 178013
8 | 39:33.39 | 7:27.07 | 178014 | 211545

Track 1

Filename D:ТоррентDead Meadow2002 – Got Live If You Want It (Live)1. Dead Meadow – Green Sky Green Lake.wav

Pre-gap length 0:00:02.00

Peak level 96.0 %
Track quality 100.0 %
Test CRC A921965B
Copy CRC A921965B
Cannot be verified as accurate (confidence 1) [03BDE79F], AccurateRip returned [24EFBF19]
Copy OK

Track 2

Filename D:ТоррентDead Meadow2002 – Got Live If You Want It (Live)2. Dead Meadow – Everything’s Goin On.wav

Peak level 91.7 %
Track quality 100.0 %
Test CRC 24F811CC
Copy CRC 24F811CC
Cannot be verified as accurate (confidence 1) [AA3AEE2E], AccurateRip returned [80D961FA]
Copy OK

Track 3

Filename D:ТоррентDead Meadow2002 – Got Live If You Want It (Live)3. Dead Meadow – Good Moanin’.wav

Peak level 94.4 %
Track quality 100.0 %
Test CRC 6F43A8D2
Copy CRC 6F43A8D2
Cannot be verified as accurate (confidence 1) [4F93990F], AccurateRip returned [02E12776]
Copy OK

Track 4

Filename D:ТоррентDead Meadow2002 – Got Live If You Want It (Live)4. Dead Meadow – Sleepy Silver Door.wav

Peak level 96.0 %
Track quality 100.0 %
Test CRC CF2DA1E4
Copy CRC CF2DA1E4
Cannot be verified as accurate (confidence 1) [53670ED0], AccurateRip returned [866F136F]
Copy OK

Track 5

Filename D:ТоррентDead Meadow2002 – Got Live If You Want It (Live)5. Dead Meadow – Beyond the Fields We Know.wav

Peak level 94.0 %
Track quality 99.9 %
Test CRC 89EA7AD5
Copy CRC 89EA7AD5
Cannot be verified as accurate (confidence 1) [888CF825], AccurateRip returned [B3C94EA2]
Copy OK

Track 6

Filename D:ТоррентDead Meadow2002 – Got Live If You Want It (Live)6. Dead Meadow – Dusty Nothing.wav

Pre-gap length 0:00:00.04

Peak level 93.7 %
Track quality 100.0 %
Test CRC B724D6F0
Copy CRC B724D6F0
Cannot be verified as accurate (confidence 1) [38F36680], AccurateRip returned [1DF3F5B2]
Copy OK

Track 7

Filename D:ТоррентDead Meadow2002 – Got Live If You Want It (Live)7. Dead Meadow – Lady.wav

Peak level 93.9 %
Track quality 100.0 %
Test CRC E56A1F1B
Copy CRC E56A1F1B
Cannot be verified as accurate (confidence 1) [BBF1A8E0], AccurateRip returned [2BFACADE]
Copy OK

Track 8

Filename D:ТоррентDead Meadow2002 – Got Live If You Want It (Live)8. Dead Meadow – Rocky Mountain High.wav

Peak level 97.3 %
Track quality 100.0 %
Test CRC 5E1E965C
Copy CRC 5E1E965C
Cannot be verified as accurate (confidence 1) [032020B6], AccurateRip returned [8F88F64D]
Copy OK

No tracks could be verified as accurate
You may have a different pressing from the one(s) in the database

No errors occurred

End of status report

DR log
foobar2000 1.2 / Dynamic Range Meter 1.1.1
log date: 2013-12-05 16:35:48

––––––––––––––––––––––––––––––––––––––––
Analyzed: Dead Meadow / Got Live If You Want It
––––––––––––––––––––––––––––––––––––––––

DR Peak RMS Duration Track
––––––––––––––––––––––––––––––––––––––––
DR8 -0.35 dB -10.18 dB 5:43 01-Green Sky Green Lake
DR8 -0.75 dB -9.40 dB 3:15 02-Everything’s Goin On
DR8 -0.50 dB -9.58 dB 4:48 03-Good Moanin’
DR9 -0.35 dB -10.78 dB 7:29 04-Sleepy Silver Door
DR9 -0.53 dB -10.60 dB 9:26 05-Beyond the Fields We Know
DR8 -0.56 dB -10.19 dB 4:06 06-Dusty Nothing
DR9 -0.54 dB -10.86 dB 4:46 07-Lady
DR9 -0.23 dB -10.88 dB 7:27 08-Rocky Mountain High
––––––––––––––––––––––––––––––––––––––––

Number of tracks: 8
Official DR value: DR8

Samplerate: 44100 Hz
Channels: 2
Bits per sample: 16
Bitrate: 876 kbps
Codec: FLAC
================================================================================

Dead Meadow - Got Live If You Want It! (2002) [Re-Up]

Dead Meadow - Got Live If You Want It! (2002) [Re-Up]

All thanks to original releaser – Знак Качества

More interesting music in My Blog

Dead Meadow – Dead Meadow (2000) Reissue 2006

Dead Meadow – Shivering King And Others (2003)

Dead Meadow – Got Live If You Want It! (2002) [Re-Up] Download, Warez, DDL, Free, Full Album, Torrent, Legal.

Download