Dave Weckl – Master Plan (1990) {GRP}

Download
Dave Weckl - Master Plan (1990) {GRP}

Dave Weckl – Master Plan (1990) {GRP}
EAC Rip | FLAC with CUE and log | scans | 306 mb
MP3 CBR 320kbps | RAR | 112 mb
Genre: jazz

You may have seen countless instructional videos by this man but now you can hear his actual music. Master Plan is the 1990 album by American drummer Dave Weckl. Released by GRP Records, this features help from Chick Corea, Michael Brecker, Steve Gadd, and many more.

Dave Weckl - Master Plan (1990) {GRP}

1. Tower Of Inspiration (3:58)
2. Here And There (6:06)
3. Festival De Ritmo (4:50)
4. In Common (5:54)
5. Garden Wall (4:32)
6. Auratune (4:45)
7. Softly, As In A Morning Sunrise (4:59)
8. Master Plan (8:12)
9. Island Magic (4:55)

Dave Weckl-drums, timbales (tracks 2 & 9), brush overdub, percussion programming (tracks 5 & 9), drums (left channel) (track 8)
Chick Corea-synthesizer (tracks 5, 8-9)
Michael Brecker-tenor sax (track 5)
Steve Gadd-drums (right channel) (track 8)
Anthony Jackson-bass (tracks 2-5. 8-9)
Jay Oliver-keyboards (tracks 1-6, 8-9)
Jerry Hey-trumpet (tracks 1 & 5)
Bill Reichenbach-trombone (track 3)
Tom Kennedy-bass (tracks 1 & 7)
Ray Kennedy-piano (track 7)
Eric Marienthal-soprano sax (tracks 2-4)
Peter Mayer-guitar (tracks 2, 4 & 6)
Scott Alspach-trumpet (track 6)

Produced by Dave Weckl
Co-produced & recorded by Jay Oliver except track 8
Track 8 recorded by Bernie Kirsh
Mixed by Jay Oliver & Dave Weckl
Assistant engineer: Darren Mora
Post-production: Michael Landy & Joseph Doughney

EAC Log
Exact Audio Copy V1.1 from 23. June 2015

EAC extraction logfile from 2. February 2017, 10:02

Dave Weckl / Master Plan

Used drive : TEAC DVD-ROM DV-28SW Adapter: 1 ID: 0

Read mode : Secure
Utilize accurate stream : Yes
Defeat audio cache : Yes
Make use of C2 pointers : No

Read offset correction : 6
Overread into Lead-In and Lead-Out : No
Fill up missing offset samples with silence : Yes
Delete leading and trailing silent blocks : No
Null samples used in CRC calculations : Yes
Used interface : Native Win32 interface for Win NT & 2000
Gap handling : Appended to previous track

Used output format : Internal WAV Routines
Sample format : 44.100 Hz; 16 Bit; Stereo

TOC of the extracted CD

Track | Start | Length | Start sector | End sector
––––––––––––––––––––––––––––-
1 | 0:00.00 | 3:59.27 | 0 | 17951
2 | 3:59.27 | 6:08.10 | 17952 | 45561
3 | 10:07.37 | 4:51.55 | 45562 | 67441
4 | 14:59.17 | 5:54.58 | 67442 | 94049
5 | 20:54.00 | 4:32.07 | 94050 | 114456
6 | 25:26.07 | 4:47.03 | 114457 | 135984
7 | 30:13.10 | 5:00.62 | 135985 | 158546
8 | 35:13.72 | 8:13.65 | 158547 | 195586
9 | 43:27.62 | 4:55.23 | 195587 | 217734

Track 1

Filename C:My DocumentsMy FLACDave Weckl – Master Plan (1990) [FLAC] {GRP}1 – Tower Of Inspiration.wav

Pre-gap length 0:00:02.00

Peak level 99.8 %
Extraction speed 1.7 X
Track quality 99.9 %
Test CRC 6AA34CB1
Copy CRC 6AA34CB1
Accurately ripped (confidence 13) [2110BC1A] (AR v2)
Copy OK

Track 2

Filename C:My DocumentsMy FLACDave Weckl – Master Plan (1990) [FLAC] {GRP}2 – Here And There.wav

Pre-gap length 0:00:00.35

Peak level 97.4 %
Extraction speed 2.3 X
Track quality 100.0 %
Test CRC 69DB580C
Copy CRC 69DB580C
Accurately ripped (confidence 13) [1958B02D] (AR v2)
Copy OK

Track 3

Filename C:My DocumentsMy FLACDave Weckl – Master Plan (1990) [FLAC] {GRP}3 – Festival de Ritmo.wav

Pre-gap length 0:00:01.02

Peak level 99.8 %
Extraction speed 2.5 X
Track quality 100.0 %
Test CRC A45B0B72
Copy CRC A45B0B72
Accurately ripped (confidence 13) [B7662E39] (AR v2)
Copy OK

Track 4

Filename C:My DocumentsMy FLACDave Weckl – Master Plan (1990) [FLAC] {GRP}4 – In Common.wav

Pre-gap length 0:00:01.17

Peak level 87.1 %
Extraction speed 2.8 X
Track quality 100.0 %
Test CRC ACB13DF7
Copy CRC ACB13DF7
Accurately ripped (confidence 13) [FD381497] (AR v2)
Copy OK

Track 5

Filename C:My DocumentsMy FLACDave Weckl – Master Plan (1990) [FLAC] {GRP}5 – Garden Wall.wav

Peak level 99.8 %
Extraction speed 2.9 X
Track quality 100.0 %
Test CRC 14E89E7E
Copy CRC 14E89E7E
Accurately ripped (confidence 13) [2E86D91C] (AR v2)
Copy OK

Track 6

Filename C:My DocumentsMy FLACDave Weckl – Master Plan (1990) [FLAC] {GRP}6 – Auratune.wav

Peak level 99.8 %
Extraction speed 3.1 X
Track quality 100.0 %
Test CRC 719BFD7A
Copy CRC 719BFD7A
Accurately ripped (confidence 13) [78D269AD] (AR v2)
Copy OK

Track 7

Filename C:My DocumentsMy FLACDave Weckl – Master Plan (1990) [FLAC] {GRP}7 – Softly, As In A Morning Sunrise.wav

Pre-gap length 0:00:01.20

Peak level 91.1 %
Extraction speed 3.2 X
Track quality 100.0 %
Test CRC 54BBC3ED
Copy CRC 54BBC3ED
Accurately ripped (confidence 12) [2523493B] (AR v2)
Copy OK

Track 8

Filename C:My DocumentsMy FLACDave Weckl – Master Plan (1990) [FLAC] {GRP}8 – Master Plan.wav

Pre-gap length 0:00:01.25

Peak level 99.8 %
Extraction speed 1.1 X
Track quality 100.0 %
Test CRC 8B713E48
Copy CRC 8B713E48
Accurately ripped (confidence 12) [0772B772] (AR v2)
Copy OK

Track 9

Filename C:My DocumentsMy FLACDave Weckl – Master Plan (1990) [FLAC] {GRP}9 – Island Magic.wav

Pre-gap length 0:00:01.12

Peak level 99.8 %
Extraction speed 3.6 X
Track quality 100.0 %
Test CRC E814A9C7
Copy CRC E814A9C7
Accurately ripped (confidence 12) [D9FA6EB5] (AR v2)
Copy OK

All tracks accurately ripped

No errors occurred

End of status report

–– CUETools DB Plugin V2.1.6

[CTDB TOCID: 8B.eVp3PjCffKBQbH1KzWZr999k-] found
Submit result: 8B.eVp3PjCffKBQbH1KzWZr999k- has been confirmed
Track | CTDB Status
1 | (27/27) Accurately ripped
2 | (27/27) Accurately ripped
3 | (26/27) Accurately ripped
4 | (25/27) Accurately ripped
5 | (27/27) Accurately ripped
6 | (25/27) Accurately ripped
7 | (27/27) Accurately ripped
8 | (27/27) Accurately ripped
9 | (25/27) Accurately ripped

==== Log checksum 38ACB81EE89A44D276BE0C4C94AD8F1A500844AD20CE9349DE7E2C7D4FAC5FD3 ====

Dave Weckl - Master Plan (1990) {GRP}

Dave Weckl – Master Plan (1990) {GRP} Download, Warez, DDL, Free, Full Album, Torrent, Legal.

Download