Darden Smith – Everything (2017) {Compass}

Download
Darden Smith - Everything (2017) {Compass}

Darden Smith – Everything (2017)
EAC Rip | FLAC (tracks+.cue, log) | Front cover only | RAR | 269 mb
Country-Folk, Americana | Label: Compass Records – 7 4681 2

Recorded over the course of three days in Austin, Everything strikes a nice balance of consideration and spontaneity. The consideration comes from the songs themselves, which are as expertly crafted as all the songs Darden Smith has written over his past 14 albums.

Some of these were penned with other writers – Matraca Berg collaborated on "Firefly," Radney Foster co-wrote two songs – but all reflect Smith’s sensitive, questioning nature. Appropriately, the record feels subdued, but that’s where the spontaneity comes into play. Yes, the record is hushed and gentle, but by recording these quickly with a team of seasoned pros (including Charlie Sexton on guitar), Everything feels fresh and fleet, not sleepy.

Thomas Erlewine

Tracklist:

01. Blessings (03:39)
02. Firefly (04:40)
03. Against the Grain (04:07)
04. I Love You, Goodbye (03:10)
05. Everything (03:38)
06. Love Will Win the War (03:54)
07. Soul Searching (03:53)
08. Me Too (03:41)
09. Carousel (03:45)
10. Home (04:26)
11. Forever (03:36)
12. Can You See the Moon (03:52)

EAC log
Exact Audio Copy V1.1 from 23. June 2015

EAC extraction logfile from 16. July 2017, 22:35

Darden Smith / Everything

Used drive : HL-DT-STDVDRAM GT50N Adapter: 1 ID: 0

Read mode : Secure
Utilize accurate stream : Yes
Defeat audio cache : Yes
Make use of C2 pointers : No

Read offset correction : 103
Overread into Lead-In and Lead-Out : No
Fill up missing offset samples with silence : Yes
Delete leading and trailing silent blocks : No
Null samples used in CRC calculations : Yes
Used interface : Native Win32 interface for Win NT & 2000
Gap handling : Appended to previous track

Used output format : User Defined Encoder
Selected bitrate : 1024 kBit/s
Quality : High
Add ID3 tag : No
Command line compressor : C:Program Files (x86)Exact Audio CopyFlacflac.exe
Additional command line options : -8 -e -V -T "ARTIST=%artist%" -T "TITLE=%title%" -T "ALBUM=%albumtitle%" -T "DATE=%year%" -T "TRACKNUMBER=%tracknr%" -T "GENRE=%genre%" -T "PERFORMER=%albuminterpret%" -T "COMPOSER=%composer%" %haslyrics%–tag-from-file=LYRICS="%lyricsfile%"%haslyrics% -T "ALBUMARTIST=%albumartist%" -T "DISCNUMBER=%cdnumber%" -T "TOTALDISCS=%totalcds%" -T "TOTALTRACKS=%numtracks%" -T "COMMENT=%comment%" %source% -o %dest%

TOC of the extracted CD

Track | Start | Length | Start sector | End sector
––––––––––––––––––––––––––––-
1 | 0:00.00 | 3:39.58 | 0 | 16482
2 | 3:39.58 | 4:40.24 | 16483 | 37506
3 | 8:20.07 | 4:07.35 | 37507 | 56066
4 | 12:27.42 | 3:10.38 | 56067 | 70354
5 | 15:38.05 | 3:38.40 | 70355 | 86744
6 | 19:16.45 | 3:54.19 | 86745 | 104313
7 | 23:10.64 | 3:53.60 | 104314 | 121848
8 | 27:04.49 | 3:41.73 | 121849 | 138496
9 | 30:46.47 | 3:45.27 | 138497 | 155398
10 | 34:31.74 | 4:26.71 | 155399 | 175419
11 | 38:58.70 | 3:36.59 | 175420 | 191678
12 | 42:35.54 | 3:52.20 | 191679 | 209098

Track 1

Filename C:Rips v2Darden Smith – Everything (FLAC)1 – Blessings.wav

Pre-gap length 0:00:02.00

Peak level 96.3 %
Extraction speed 1.9 X
Track quality 99.9 %
Test CRC 61615D55
Copy CRC 61615D55
Accurately ripped (confidence 1) [B4FF6FF5] (AR v1)
Copy OK

Track 2

Filename C:Rips v2Darden Smith – Everything (FLAC)2 – Firefly.wav

Peak level 96.4 %
Extraction speed 2.8 X
Track quality 100.0 %
Test CRC 87D4DB2A
Copy CRC 87D4DB2A
Accurately ripped (confidence 1) [B423A9BF] (AR v1)
Copy OK

Track 3

Filename C:Rips v2Darden Smith – Everything (FLAC)3 – Against The Grain.wav

Peak level 95.8 %
Extraction speed 3.0 X
Track quality 100.0 %
Test CRC 6EEB1642
Copy CRC 6EEB1642
Accurately ripped (confidence 1) [D8383837] (AR v1)
Copy OK

Track 4

Filename C:Rips v2Darden Smith – Everything (FLAC)4 – I Love You, Goodbye.wav

Pre-gap length 0:00:01.53

Peak level 95.9 %
Extraction speed 3.1 X
Track quality 100.0 %
Test CRC 8D70F94E
Copy CRC 8D70F94E
Accurately ripped (confidence 1) [FF84F099] (AR v1)
Copy OK

Track 5

Filename C:Rips v2Darden Smith – Everything (FLAC)5 – Everything.wav

Peak level 96.3 %
Extraction speed 3.4 X
Track quality 100.0 %
Test CRC F22C3F77
Copy CRC F22C3F77
Accurately ripped (confidence 1) [5056CB89] (AR v1)
Copy OK

Track 6

Filename C:Rips v2Darden Smith – Everything (FLAC)6 – Love Will Win The War.wav

Peak level 96.2 %
Extraction speed 3.6 X
Track quality 100.0 %
Test CRC 9EC709F0
Copy CRC 9EC709F0
Accurately ripped (confidence 1) [AC93B291] (AR v1)
Copy OK

Track 7

Filename C:Rips v2Darden Smith – Everything (FLAC)7 – Soul Searching.wav

Pre-gap length 0:00:01.42

Peak level 95.8 %
Extraction speed 3.8 X
Track quality 100.0 %
Test CRC 501E090C
Copy CRC 501E090C
Accurately ripped (confidence 1) [705A1C73] (AR v1)
Copy OK

Track 8

Filename C:Rips v2Darden Smith – Everything (FLAC)8 – Me Too.wav

Peak level 96.0 %
Extraction speed 3.9 X
Track quality 100.0 %
Test CRC 5A6E03A6
Copy CRC 5A6E03A6
Accurately ripped (confidence 1) [A32BEC77] (AR v1)
Copy OK

Track 9

Filename C:Rips v2Darden Smith – Everything (FLAC)9 – Carousel.wav

Pre-gap length 0:00:01.04

Peak level 96.4 %
Extraction speed 4.0 X
Track quality 100.0 %
Test CRC F88B3956
Copy CRC F88B3956
Accurately ripped (confidence 1) [25EA4433] (AR v1)
Copy OK

Track 10

Filename C:Rips v2Darden Smith – Everything (FLAC)10 – Home.wav

Pre-gap length 0:00:01.45

Peak level 96.4 %
Extraction speed 4.3 X
Track quality 100.0 %
Test CRC 90EB5F26
Copy CRC 90EB5F26
Accurately ripped (confidence 1) [CDFD110A] (AR v2)
Copy OK

Track 11

Filename C:Rips v2Darden Smith – Everything (FLAC)11 – Forever.wav

Peak level 95.9 %
Extraction speed 3.0 X
Track quality 99.9 %
Test CRC 85D2D576
Copy CRC 85D2D576
Accurately ripped (confidence 1) [7AAC3974] (AR v2)
Copy OK

Track 12

Filename C:Rips v2Darden Smith – Everything (FLAC)12 – Can You See The Moon.wav

Peak level 95.7 %
Extraction speed 2.3 X
Track quality 100.0 %
Test CRC 24F59AA8
Copy CRC 24F59AA8
Accurately ripped (confidence 1) [76515505] (AR v2)
Copy OK

All tracks accurately ripped

No errors occurred

End of status report

–– CUETools DB Plugin V2.1.6

[CTDB TOCID: hjV8NelvhsNJTmKEhcehaCZ1vec-] found
Submit result: hjV8NelvhsNJTmKEhcehaCZ1vec- has been confirmed
Track | CTDB Status
1 | (3/3) Accurately ripped
2 | (3/3) Accurately ripped
3 | (3/3) Accurately ripped
4 | (3/3) Accurately ripped
5 | (3/3) Accurately ripped
6 | (3/3) Accurately ripped
7 | (3/3) Accurately ripped
8 | (3/3) Accurately ripped
9 | (3/3) Accurately ripped
10 | (3/3) Accurately ripped
11 | (3/3) Accurately ripped
12 | (3/3) Accurately ripped

==== Log checksum 5C655B605C8FF2FAFC14B95FA4FC0F2948B7B56EF08EC3FDE37553C759CC2F74 ====

Thanks to the Original customer.

Darden Smith – Everything (2017) {Compass} Download, Warez, DDL, Free, Full Album, Torrent, Legal.

Download