Daphni – Fabriclive 93 (2017)

Download
Daphni - Fabriclive 93 (2017)

Daphni – Fabriclive 93
XLD Rip | FLAC (tracks)+cue, log, front cover | 73:44 min | 441 MB
Label: fabric – fabric 186 | Tracks: 27 | Rls.date: 2017
Electronic, Experimental, House, Leftfield

Daphni (aka Caribou, aka Dan Snaith) has announced his first full body of work under the moniker since 2012’s critically acclaimed JIAOLONG album and most recently Caribou’s seminal standout 2014 album Our Love. It comes in the form of a very special FABRICLIVE mix composed of 23 original, unreleased Daphni tracks and four new Daphni edits.

Daphni was originally born out of a desire to make more immediate music, working fast and capturing the energy of those moments in smaller club spaces Dan found when touring and DJing with Caribou early on. Growing into bigger rooms and impressive line ups such as his recent night at London’s Printworks with Floating Points, Joy Orbison, Gold Panda and more; wherever he may now play, the ethos remains the same. As a result the second full body of Daphni work (containing more original material than has been released to date in total) finding it’s home inside of this mix makes perfect sense.
"What started as a mix featuring bits of new music gradually evolved until it reached a place where it was essentially a studio recording and barely a DJ mix at all, yet the structure remained. A lot of these tracks were recorded in situ in the mix itself – I’d put one track in place and instead of searching through existing music to find the track to follow it I’d just make an entirely new one." Daphni

When it comes to his personal relationship with fabric, Dan talks of his time DJing alongside Kieran Hebden, aka Four Tet (“hopefully we left our own oddball imprint on the miasma of musical memories that hang in the air in that room”) as well as the fact that when making Our Love he was allowed into the club during the day to listen to demos on the fabric sound system. “There have been so many (excellent) FABRICLIVE and fabric mixes at this point that I knew I should only do one if I could think of a way of doing my own take on it. As mentioned above, Villalobos is the primary artist I associate with fabric and so I immediately thought about making a mix of my own unreleased music – following on in the tradition of his, Omar-S and Shackleton’s fabric mixes”.

"I’ve been to fabric maybe ten or fifteen times over the years and the majority of those have been to see Ricardo Villalobos play." Daphni continues, "I’m always drawn to the eccentrics in each field of music and I love that a club like fabric, that is such a mainstay of London’s clubbing landscape, is also the de facto London home of dance music’s foremost eccentric."

TRACKLIST
01. Daphni – Face To Face
02. Daphni & – Xing Tian
03. Daphni – Carry On
04. Jamire Williams – FUTURISM (Daphni Edit)
05. Daphni – Poly
06. Daphni – Ten Thousand
07. Daphni – Medellin
08. Daphni – Hey Drum
09. Luther Davis Group & – You Can Be A Star (Daphni Edit)
10. Daphni – Try
11. Daphni – Vikram
12. Pheeroan Ak Laff – 3 In 1 (Daphni Edit)
13. Daphni – Listen Up
14. Daphni – Tin
15. Daphni – Moshi
16. Daphni – Strange Bird
17. Container – Dissolve (Daphni Edit)
18. Daphni – Joli Mai
19. Daphni – Nocturne
20. Daphni – So It Seems
21. Daphni – Screaming Man Baby
22. Daphni – vs
23. Daphni – The Truth
24. Daphni – 406.42 ppm
25. Daphni – Always There
26. Daphni – Fly Away
27. Daphni – Life’s What You Make It

XLD Log
X Lossless Decoder version 20170710 (150.2)

XLD extraction logfile from 2017-07-15 14:33:54 +0100

Various Artists / FABRICLIVE 93: Daphni

Used drive : OPTIARC DVD RW AD-5680H (revision 3AHB)
Media type : Pressed CD

Ripper mode : XLD Secure Ripper
Disable audio cache : OK for the drive with a cache less than 1375KiB
Make use of C2 pointers : NO
Read offset correction : 48
Max retry count : 20
Gap status : Analyzed, Appended (except HTOA)

TOC of the extracted CD
Track | Start | Length | Start sector | End sector
––––––––––––––––––––––––––––-
1 | 00:00:00 | 03:46:11 | 0 | 16960
2 | 03:46:11 | 03:29:67 | 16961 | 32702
3 | 07:16:03 | 02:05:45 | 32703 | 42122
4 | 09:21:48 | 00:47:03 | 42123 | 45650
5 | 10:08:51 | 02:28:23 | 45651 | 56773
6 | 12:36:74 | 04:29:68 | 56774 | 77016
7 | 17:06:67 | 03:05:29 | 77017 | 90920
8 | 20:12:21 | 05:01:12 | 90921 | 113507
9 | 25:13:33 | 04:15:00 | 113508 | 132632
10 | 29:28:33 | 01:43:08 | 132633 | 140365
11 | 31:11:41 | 01:02:01 | 140366 | 145016
12 | 32:13:42 | 02:11:43 | 145017 | 154884
13 | 34:25:10 | 02:42:15 | 154885 | 167049
14 | 37:07:25 | 02:46:65 | 167050 | 179564
15 | 39:54:15 | 01:32:23 | 179565 | 186487
16 | 41:26:38 | 00:36:69 | 186488 | 189256
17 | 42:03:32 | 01:43:29 | 189257 | 197010
18 | 43:46:61 | 01:58:11 | 197011 | 205871
19 | 45:44:72 | 04:07:21 | 205872 | 224417
20 | 49:52:18 | 04:21:52 | 224418 | 244044
21 | 54:13:70 | 01:40:19 | 244045 | 251563
22 | 55:54:14 | 02:19:19 | 251564 | 262007
23 | 58:13:33 | 03:27:05 | 262008 | 277537
24 | 61:40:38 | 03:28:44 | 277538 | 293181
25 | 65:09:07 | 02:56:10 | 293182 | 306391
26 | 68:05:17 | 02:01:39 | 306392 | 315505
27 | 70:06:56 | 03:47:43 | 315506 | 332573

AccurateRip Summary
Disc not found in AccurateRip DB.

All Tracks
Album gain : -5.99 dB
Peak : 0.999023
Statistics
Read error : 0
Jitter error (maybe fixed) : 0
Retry sector count : 0
Damaged sector count : 0

Track 01
Filename : /Users/Shared/XLD Rips/Compilations – FABRICLIVE 93: Daphni (2017) [FLAC]/01-01 – Daphni – Face To Face.flac
Pre-gap length : 00:02:00

Track gain : -5.99 dB
Peak : 0.999023
CRC32 hash (test run) : 5BE2F2BE
CRC32 hash : 5BE2F2BE
CRC32 hash (skip zero) : 021F25FC
AccurateRip v1 signature : BF2C57CA
AccurateRip v2 signature : F0D320CB
->Track not present in AccurateRip database.
Statistics
Read error : 0
Jitter error (maybe fixed) : 0
Retry sector count : 0
Damaged sector count : 0

Track 02
Filename : /Users/Shared/XLD Rips/Compilations – FABRICLIVE 93: Daphni (2017) [FLAC]/01-02 – Daphni – Xing Tian.flac

Track gain : -7.32 dB
Peak : 0.999023
CRC32 hash (test run) : 1B3BE347
CRC32 hash : 1B3BE347
CRC32 hash (skip zero) : 4EEAF32B
AccurateRip v1 signature : ECEEF486
AccurateRip v2 signature : 5CE1AAA4
->Track not present in AccurateRip database.
Statistics
Read error : 0
Jitter error (maybe fixed) : 0
Retry sector count : 0
Damaged sector count : 0

Track 03
Filename : /Users/Shared/XLD Rips/Compilations – FABRICLIVE 93: Daphni (2017) [FLAC]/01-03 – Daphni – Carry On.flac

Track gain : -5.79 dB
Peak : 0.994110
CRC32 hash (test run) : B2640DE2
CRC32 hash : B2640DE2
CRC32 hash (skip zero) : 0B31D7FA
AccurateRip v1 signature : 57EB1F9C
AccurateRip v2 signature : 00F3FF16
->Track not present in AccurateRip database.
Statistics
Read error : 0
Jitter error (maybe fixed) : 0
Retry sector count : 0
Damaged sector count : 0

Track 04
Filename : /Users/Shared/XLD Rips/Compilations – FABRICLIVE 93: Daphni (2017) [FLAC]/01-04 – Jamire Williams – FUTURISM (Daphni Edit).flac

Track gain : -8.42 dB
Peak : 0.999023
CRC32 hash (test run) : 4AE7B7BE
CRC32 hash : 4AE7B7BE
CRC32 hash (skip zero) : C82E8B20
AccurateRip v1 signature : 89D918B4
AccurateRip v2 signature : 3FBA7355
->Track not present in AccurateRip database.
Statistics
Read error : 0
Jitter error (maybe fixed) : 0
Retry sector count : 0
Damaged sector count : 0

Track 05
Filename : /Users/Shared/XLD Rips/Compilations – FABRICLIVE 93: Daphni (2017) [FLAC]/01-05 – Daphni – Poly.flac

Track gain : -5.94 dB
Peak : 0.999023
CRC32 hash (test run) : B7375257
CRC32 hash : B7375257
CRC32 hash (skip zero) : 3DFB8544
AccurateRip v1 signature : E0097B71
AccurateRip v2 signature : BDBE9616
->Track not present in AccurateRip database.
Statistics
Read error : 0
Jitter error (maybe fixed) : 0
Retry sector count : 0
Damaged sector count : 0

Track 06
Filename : /Users/Shared/XLD Rips/Compilations – FABRICLIVE 93: Daphni (2017) [FLAC]/01-06 – Daphni – Ten Thousand.flac

Track gain : -2.38 dB
Peak : 0.862274
CRC32 hash (test run) : 93276C53
CRC32 hash : 93276C53
CRC32 hash (skip zero) : 2379AF2E
AccurateRip v1 signature : 835E223B
AccurateRip v2 signature : FF611D79
->Track not present in AccurateRip database.
Statistics
Read error : 0
Jitter error (maybe fixed) : 0
Retry sector count : 0
Damaged sector count : 0

Track 07
Filename : /Users/Shared/XLD Rips/Compilations – FABRICLIVE 93: Daphni (2017) [FLAC]/01-07 – Daphni – Medellin.flac

Track gain : -8.19 dB
Peak : 0.999023
CRC32 hash (test run) : 4699F276
CRC32 hash : 4699F276
CRC32 hash (skip zero) : 3B6D868C
AccurateRip v1 signature : 33C10F88
AccurateRip v2 signature : AC812596
->Track not present in AccurateRip database.
Statistics
Read error : 0
Jitter error (maybe fixed) : 0
Retry sector count : 0
Damaged sector count : 0

Track 08
Filename : /Users/Shared/XLD Rips/Compilations – FABRICLIVE 93: Daphni (2017) [FLAC]/01-08 – Daphni – Hey Drum.flac

Track gain : -6.55 dB
Peak : 0.999023
CRC32 hash (test run) : B15DAF01
CRC32 hash : B15DAF01
CRC32 hash (skip zero) : 40F8A16B
AccurateRip v1 signature : CF87580C
AccurateRip v2 signature : 112ECA5B
->Track not present in AccurateRip database.
Statistics
Read error : 0
Jitter error (maybe fixed) : 0
Retry sector count : 0
Damaged sector count : 0

Track 09
Filename : /Users/Shared/XLD Rips/Compilations – FABRICLIVE 93: Daphni (2017) [FLAC]/01-09 – Luther Davis Group – You Can Be A Star (Daphni Edit).flac

Track gain : -4.84 dB
Peak : 0.999023
CRC32 hash (test run) : 7D34927D
CRC32 hash : 7D34927D
CRC32 hash (skip zero) : F1302359
AccurateRip v1 signature : E0BB14A3
AccurateRip v2 signature : DAADE4A0
->Track not present in AccurateRip database.
Statistics
Read error : 0
Jitter error (maybe fixed) : 0
Retry sector count : 0
Damaged sector count : 0

Track 10
Filename : /Users/Shared/XLD Rips/Compilations – FABRICLIVE 93: Daphni (2017) [FLAC]/01-10 – Daphni – Try.flac

Track gain : -3.28 dB
Peak : 0.999023
CRC32 hash (test run) : 906CB37D
CRC32 hash : 906CB37D
CRC32 hash (skip zero) : 411C0AA7
AccurateRip v1 signature : F5FC5CD0
AccurateRip v2 signature : A0FB5BE8
->Track not present in AccurateRip database.
Statistics
Read error : 0
Jitter error (maybe fixed) : 0
Retry sector count : 0
Damaged sector count : 0

Track 11
Filename : /Users/Shared/XLD Rips/Compilations – FABRICLIVE 93: Daphni (2017) [FLAC]/01-11 – Daphni – Vikram.flac

Track gain : -6.23 dB
Peak : 0.999023
CRC32 hash (test run) : 4208E16E
CRC32 hash : 4208E16E
CRC32 hash (skip zero) : B951DC00
AccurateRip v1 signature : 0A498F80
AccurateRip v2 signature : 27AC024D
->Track not present in AccurateRip database.
Statistics
Read error : 0
Jitter error (maybe fixed) : 0
Retry sector count : 0
Damaged sector count : 0

Track 12
Filename : /Users/Shared/XLD Rips/Compilations – FABRICLIVE 93: Daphni (2017) [FLAC]/01-12 – Pheeroan Ak Laff – 3 In 1 (Daphni Edit).flac

Track gain : -5.42 dB
Peak : 0.999023
CRC32 hash (test run) : F0070A5F
CRC32 hash : F0070A5F
CRC32 hash (skip zero) : 65A4E339
AccurateRip v1 signature : 8082B475
AccurateRip v2 signature : 50B8A384
->Track not present in AccurateRip database.
Statistics
Read error : 0
Jitter error (maybe fixed) : 0
Retry sector count : 0
Damaged sector count : 0

Track 13
Filename : /Users/Shared/XLD Rips/Compilations – FABRICLIVE 93: Daphni (2017) [FLAC]/01-13 – Daphni – Listen Up.flac

Track gain : -4.21 dB
Peak : 0.999023
CRC32 hash (test run) : AE0A85C1
CRC32 hash : AE0A85C1
CRC32 hash (skip zero) : 344C1454
AccurateRip v1 signature : E1CEA8A0
AccurateRip v2 signature : FDDBE051
->Track not present in AccurateRip database.
Statistics
Read error : 0
Jitter error (maybe fixed) : 0
Retry sector count : 0
Damaged sector count : 0

Track 14
Filename : /Users/Shared/XLD Rips/Compilations – FABRICLIVE 93: Daphni (2017) [FLAC]/01-14 – Daphni – Tin.flac

Track gain : -5.23 dB
Peak : 0.999023
CRC32 hash (test run) : 12AFB574
CRC32 hash : 12AFB574
CRC32 hash (skip zero) : 279CE895
AccurateRip v1 signature : 9C00DAE9
AccurateRip v2 signature : 6AA42C04
->Track not present in AccurateRip database.
Statistics
Read error : 0
Jitter error (maybe fixed) : 0
Retry sector count : 0
Damaged sector count : 0

Track 15
Filename : /Users/Shared/XLD Rips/Compilations – FABRICLIVE 93: Daphni (2017) [FLAC]/01-15 – Daphni – Moshi.flac

Track gain : -4.50 dB
Peak : 0.999023
CRC32 hash (test run) : 6EE26D60
CRC32 hash : 6EE26D60
CRC32 hash (skip zero) : 36A37BDD
AccurateRip v1 signature : 41A2062F
AccurateRip v2 signature : 4021278B
->Track not present in AccurateRip database.
Statistics
Read error : 0
Jitter error (maybe fixed) : 0
Retry sector count : 0
Damaged sector count : 0

Track 16
Filename : /Users/Shared/XLD Rips/Compilations – FABRICLIVE 93: Daphni (2017) [FLAC]/01-16 – Daphni – Strange Bird.flac

Track gain : -5.97 dB
Peak : 0.959961
CRC32 hash (test run) : 6DA82A99
CRC32 hash : 6DA82A99
CRC32 hash (skip zero) : 62128216
AccurateRip v1 signature : 583CB9AA
AccurateRip v2 signature : 2B9022A7
->Track not present in AccurateRip database.
Statistics
Read error : 0
Jitter error (maybe fixed) : 0
Retry sector count : 0
Damaged sector count : 0

Track 17
Filename : /Users/Shared/XLD Rips/Compilations – FABRICLIVE 93: Daphni (2017) [FLAC]/01-17 – Container – Dissolve (Daphni Edit).flac

Track gain : -6.13 dB
Peak : 0.999023
CRC32 hash (test run) : BCD5462F
CRC32 hash : BCD5462F
CRC32 hash (skip zero) : 1BC1408E
AccurateRip v1 signature : D0F50725
AccurateRip v2 signature : 063ECAAF
->Track not present in AccurateRip database.
Statistics
Read error : 0
Jitter error (maybe fixed) : 0
Retry sector count : 0
Damaged sector count : 0

Track 18
Filename : /Users/Shared/XLD Rips/Compilations – FABRICLIVE 93: Daphni (2017) [FLAC]/01-18 – Daphni – Joli Mai.flac

Track gain : -6.60 dB
Peak : 0.999023
CRC32 hash (test run) : 207CECA0
CRC32 hash : 207CECA0
CRC32 hash (skip zero) : C000F10B
AccurateRip v1 signature : 752387AE
AccurateRip v2 signature : F3BC222E
->Track not present in AccurateRip database.
Statistics
Read error : 0
Jitter error (maybe fixed) : 0
Retry sector count : 0
Damaged sector count : 0

Track 19
Filename : /Users/Shared/XLD Rips/Compilations – FABRICLIVE 93: Daphni (2017) [FLAC]/01-19 – Daphni – Nocturne.flac

Track gain : -6.54 dB
Peak : 0.999023
CRC32 hash (test run) : 579F262E
CRC32 hash : 579F262E
CRC32 hash (skip zero) : BC94FCED
AccurateRip v1 signature : 2B5B2C80
AccurateRip v2 signature : 58A3BF01
->Track not present in AccurateRip database.
Statistics
Read error : 0
Jitter error (maybe fixed) : 0
Retry sector count : 0
Damaged sector count : 0

Track 20
Filename : /Users/Shared/XLD Rips/Compilations – FABRICLIVE 93: Daphni (2017) [FLAC]/01-20 – Daphni – So It Seems.flac

Track gain : -4.39 dB
Peak : 0.999023
CRC32 hash (test run) : DCE92363
CRC32 hash : DCE92363
CRC32 hash (skip zero) : 42118744
AccurateRip v1 signature : F95241B2
AccurateRip v2 signature : 6693DFC3
->Track not present in AccurateRip database.
Statistics
Read error : 0
Jitter error (maybe fixed) : 0
Retry sector count : 0
Damaged sector count : 0

Track 21
Filename : /Users/Shared/XLD Rips/Compilations – FABRICLIVE 93: Daphni (2017) [FLAC]/01-21 – Daphni – Screaming Man Baby.flac

Track gain : -4.31 dB
Peak : 0.999023
CRC32 hash (test run) : 5F2D13DA
CRC32 hash : 5F2D13DA
CRC32 hash (skip zero) : 4EA6591D
AccurateRip v1 signature : 5F54F07D
AccurateRip v2 signature : C0C40A4E
->Track not present in AccurateRip database.
Statistics
Read error : 0
Jitter error (maybe fixed) : 0
Retry sector count : 0
Damaged sector count : 0

Track 22
Filename : /Users/Shared/XLD Rips/Compilations – FABRICLIVE 93: Daphni (2017) [FLAC]/01-22 – Daphni – vs.flac

Track gain : -6.08 dB
Peak : 0.999023
CRC32 hash (test run) : 880922B4
CRC32 hash : 880922B4
CRC32 hash (skip zero) : 1CFB3CAB
AccurateRip v1 signature : 8F346B43
AccurateRip v2 signature : 742A753B
->Track not present in AccurateRip database.
Statistics
Read error : 0
Jitter error (maybe fixed) : 0
Retry sector count : 0
Damaged sector count : 0

Track 23
Filename : /Users/Shared/XLD Rips/Compilations – FABRICLIVE 93: Daphni (2017) [FLAC]/01-23 – Daphni – The Truth.flac

Track gain : -5.91 dB
Peak : 0.999023
CRC32 hash (test run) : 2CECDFF2
CRC32 hash : 2CECDFF2
CRC32 hash (skip zero) : 84213053
AccurateRip v1 signature : 4FE9244F
AccurateRip v2 signature : FD2E3914
->Track not present in AccurateRip database.
Statistics
Read error : 0
Jitter error (maybe fixed) : 0
Retry sector count : 0
Damaged sector count : 0

Track 24
Filename : /Users/Shared/XLD Rips/Compilations – FABRICLIVE 93: Daphni (2017) [FLAC]/01-24 – Daphni – 406.42 ppm.flac

Track gain : -5.67 dB
Peak : 0.999023
CRC32 hash (test run) : 806DCC77
CRC32 hash : 806DCC77
CRC32 hash (skip zero) : DB4A55B5
AccurateRip v1 signature : 917FE165
AccurateRip v2 signature : 6EADF33D
->Track not present in AccurateRip database.
Statistics
Read error : 0
Jitter error (maybe fixed) : 0
Retry sector count : 0
Damaged sector count : 0

Track 25
Filename : /Users/Shared/XLD Rips/Compilations – FABRICLIVE 93: Daphni (2017) [FLAC]/01-25 – Daphni – Always There.flac

Track gain : -5.08 dB
Peak : 0.999023
CRC32 hash (test run) : 064B2417
CRC32 hash : 064B2417
CRC32 hash (skip zero) : 58501A28
AccurateRip v1 signature : 3387F712
AccurateRip v2 signature : E4C8AF14
->Track not present in AccurateRip database.
Statistics
Read error : 0
Jitter error (maybe fixed) : 0
Retry sector count : 0
Damaged sector count : 0

Track 26
Filename : /Users/Shared/XLD Rips/Compilations – FABRICLIVE 93: Daphni (2017) [FLAC]/01-26 – Daphni – Fly Away.flac

Track gain : -7.83 dB
Peak : 0.999023
CRC32 hash (test run) : D9942402
CRC32 hash : D9942402
CRC32 hash (skip zero) : E3F46C10
AccurateRip v1 signature : D2ABB76A
AccurateRip v2 signature : D82BAF9F
->Track not present in AccurateRip database.
Statistics
Read error : 0
Jitter error (maybe fixed) : 0
Retry sector count : 0
Damaged sector count : 0

Track 27
Filename : /Users/Shared/XLD Rips/Compilations – FABRICLIVE 93: Daphni (2017) [FLAC]/01-27 – Daphni – Life’s What You Make It.flac

Track gain : -3.77 dB
Peak : 0.994049
CRC32 hash (test run) : A7305EE2
CRC32 hash : A7305EE2
CRC32 hash (skip zero) : EADB55FE
AccurateRip v1 signature : A74520B0
AccurateRip v2 signature : 76685A18
->Track not present in AccurateRip database.
Statistics
Read error : 0
Jitter error (maybe fixed) : 0
Retry sector count : 0
Damaged sector count : 0

No errors occurred

End of status report

––-BEGIN XLD SIGNATURE––-
InncDXDd.SI6BxIZXDIifucj8t.91225tsKE7TLvlEsGf3yQoU8lzPhXI4mb1kt7etzQMAF8psG.TG9NGOwdOyTreAv437lIIRnBGj8
––-END XLD SIGNATURE––-

Thanks to the Original customer.

Daphni – Fabriclive 93 (2017) Download, Warez, DDL, Free, Full Album, Torrent, Legal.

Download