Dante Quartet – Stanford: String Quartets Nos. 5 & 8 (2016)

Download
Dante Quartet - Stanford: String Quartets Nos. 5 & 8 (2016)

Dante Quartet – Stanford: String Quartets Nos. 5 & 8
Classical | WEB FLAC (tracks) & d. booklet | 66:55 min | 294 MB
Label: SOMM Recordings | Tracks: 09 | Rls.date: 2016

This new release signals the start of an important new series from SOMM Recordings which will feature the Eight Quartets by Sir Charles Villiers Stanford. This first installation contains Quartets Nos 5 and 8, which have never before been recorded but as this recording proves, deserve to gain their rightful place among the great 20th century quartets. Sir Charles Villiers Stanford invested a great deal of his creative powers into his eight string quartets which are all big-boned intellectual works, yet full of vibrantly appealing melodies, structural invention and variety, and are typical of Stanford. With the exception of Robert Simpson, no other British composer has devoted so much effort to the quartet idiom, yet Stanfords works still remain thoroughly neglected. Much of this is down to the unavailability of performing materials since four of the quartets, Nos 4, 6, 7, and 8, are still unpublished and require extensive editorial work for performance and recording. Professor Jeremy Dibble has tackled this editorial work for this first installment. Stanford wrote the 5th Quartet in the memory of his friend and mentor, violinist Joseph Joachim, who died in 1907. In this piece, Stanford included his own personal tribute in each of the four movements, a motto quotation from the opening bars of Joachims Romance Op. 2 No. 1 for Violin and Piano. This work has been included in this recording for its important relationship to the 5th Quartet.

TRACKLIST
01. String Quartet No. 5 in B-Flat Major, Op. 104: I. Allegro moderato
02. String Quartet No. 5 in B-Flat Major, Op. 104: II. Intermezzo. Allegretto
03. String Quartet No. 5 in B-Flat Major, Op. 104: III. Adagio pesante
04. String Quartet No. 5 in B-Flat Major, Op. 104: IV. Allegro moderato
05. 3 Stücke, Op. 2: No. 1, Romance
06. String Quartet No. 8 in E Minor, Op. 167: I. Allegro moderato
07. String Quartet No. 8 in E Minor, Op. 167: II. Allegretto
08. String Quartet No. 8 in E Minor, Op. 167: III. Canzona. Adagio
09. String Quartet No. 8 in E Minor, Op. 167: IV. Finale. Allegro

auCDtect
PERFORMER: auCDtect Task Manager, ver. 1.6.0 RC1 build 1.6.0.1
Copyright © 2008-2010 y-soft. All rights reserved

ANALYZER: auCDtect: CD records authenticity detector, version 0.8.2
Copyright © 2004 Oleg Berngardt. All rights reserved.
Copyright © 2004 Alexander Djourik. All rights reserved.

FILE: 09. String Quartet No. 8 in E Minor, Op. 167 IV. Finale. Allegro – Dante Quartet.flac
Size: 35190836 Hash: 044614DA0EFBEFED8224643D15C34A63 Accuracy: -m0
Conclusion: CDDA 99%
Signature: 4AF6D1F67F36E8A47B4A54B17D8056ADF814940B
FILE: 08. String Quartet No. 8 in E Minor, Op. 167 III. Canzona. Adagio – Dante Quartet.flac
Size: 29786196 Hash: 02A1E538518E5131BE0A1773D74417A6 Accuracy: -m0
Conclusion: CDDA 99%
Signature: A0D0B81FC2783680B4E9290105867ACDEAD5D2CA
FILE: 07. String Quartet No. 8 in E Minor, Op. 167 II. Allegretto – Dante Quartet.flac
Size: 20875119 Hash: DF11050CA1241DC35856467A0BBAE909 Accuracy: -m0
Conclusion: CDDA 99%
Signature: 6D4075CCE027D19A09D998FB176B229AA2C90E7E
FILE: 06. String Quartet No. 8 in E Minor, Op. 167 I. Allegro moderato – Dante Quartet.flac
Size: 35334629 Hash: 9F1A2C62E9BD3EB774B40645E4F5129D Accuracy: -m0
Conclusion: CDDA 99%
Signature: 915512CBDFD95CC7C54B65766D07FFF9E6AB77A3
FILE: 05. 3 Stücke, Op. 2 No. 1, Romance – Krysia Osostowicz.flac
Size: 18049881 Hash: A70155D8EF29F6F55FDC3C9675A41F59 Accuracy: -m0
Conclusion: CDDA 100%
Signature: 912A92075AD8E51F8413449AC7A5B12B8EDA8133
FILE: 04. String Quartet No. 5 in B-Flat Major, Op. 104 IV. Allegro moderato – Dante Quartet.flac
Size: 42837932 Hash: 4AB58E5BC7534D42AB6456815E09A8C9 Accuracy: -m0
Conclusion: CDDA 99%
Signature: EDA3BF21E086C9D6A47BF2A91EEC74A1119988E7
FILE: 03. String Quartet No. 5 in B-Flat Major, Op. 104 III. Adagio pesante – Dante Quartet.flac
Size: 48616853 Hash: BB12E8DFC7344153769F55D9827F2383 Accuracy: -m0
Conclusion: CDDA 100%
Signature: F6C80FCBB45D5349A2EB2DE104123B3AB5702431
FILE: 02. String Quartet No. 5 in B-Flat Major, Op. 104 II. Intermezzo. Allegretto – Dante Quartet.flac
Size: 25335115 Hash: A3CF12E43E7C74F831BF121491EC84FB Accuracy: -m0
Conclusion: CDDA 100%
Signature: BE6C295AC8496B1EB3C124A887A3D43AB1131DE4
FILE: 01. String Quartet No. 5 in B-Flat Major, Op. 104 I. Allegro moderato – Dante Quartet.flac
Size: 43173617 Hash: F389021937354F26B3451497E1EE70AE Accuracy: -m0
Conclusion: CDDA 100%
Signature: 9DCC48557F72E8736DE1D30FA422637ED65F4D87

DR
foobar2000 1.3.7 / Dynamic Range Meter 1.1.1
log date: 2017-10-10 21:47:16

––––––––––––––––––––––––––––––––––––––––
Analyzed: Dante Quartet / Stanford: String Quartets Nos. 5 & 8 (1-8)
Krysia Osostowicz / Stanford: String Quartets Nos. 5 & 8 (9)
––––––––––––––––––––––––––––––––––––––––

DR Peak RMS Duration Track
––––––––––––––––––––––––––––––––––––––––
DR15 -0.88 dB -21.07 dB 9:09 01-String Quartet No. 5 in B-Flat Major, Op. 104: I. Allegro moderato
DR14 -4.05 dB -24.42 dB 5:53 02-String Quartet No. 5 in B-Flat Major, Op. 104: II. Intermezzo. Allegretto
DR15 -2.30 dB -22.03 dB 10:52 03-String Quartet No. 5 in B-Flat Major, Op. 104: III. Adagio pesante
DR14 -2.71 dB -21.80 dB 8:58 04-String Quartet No. 5 in B-Flat Major, Op. 104: IV. Allegro moderato
DR13 -4.68 dB -22.95 dB 7:51 06-String Quartet No. 8 in E Minor, Op. 167: I. Allegro moderato
DR15 -0.71 dB -23.31 dB 4:45 07-String Quartet No. 8 in E Minor, Op. 167: II. Allegretto
DR15 -3.15 dB -25.65 dB 7:15 08-String Quartet No. 8 in E Minor, Op. 167: III. Canzona. Adagio
DR16 -1.11 dB -22.56 dB 7:45 09-String Quartet No. 8 in E Minor, Op. 167: IV. Finale. Allegro
DR15 -1.82 dB -24.26 dB 4:29 05-3 Stücke, Op. 2: No. 1, Romance
––––––––––––––––––––––––––––––––––––––––

Number of tracks: 9
Official DR value: DR15

Samplerate: 44100 Hz
Channels: 2
Bits per sample: 16
Bitrate: 526 kbps
Codec: FLAC
================================================================================

Dante Quartet - Stanford: String Quartets Nos. 5 & 8 (2016)
Thanks to the Original customer.

Dante Quartet – Stanford: String Quartets Nos. 5 & 8 (2016) Download, Warez, DDL, Free, Full Album, Torrent, Legal.

Download