Dan Lucas – Canada (1992)

Download
Dan Lucas - Canada (1992)

Dan Lucas – Canada (1992)
Pop/Rock, Electronic, AOR | EAC Rip | FLAC, Img+CUE+LOG+Scans-600dpi (JPEG) | 52:27 Min | 388,27 Mb
Label: Marlboro Music (Germany) | Released: 1992
Dan Lucas - Canada (1992)

With the help of Robert Papst of Dominoe Fame, Dan Lucas has delivered a collection of songs that even the most hardened aor freak couldnt resist. It’s just one great track after another without giving you enough time to breathe and that to me is a good sign of a great record… If you havent heard of Dan Lucas before go grab this if you can (its a bit hard to find these days) its worth the money you’ll have to pay for believe me!

~Review by Rob Garcia

Trully an AOR masterpiece!!! I have one copy of the album but I would appreciate to buy it once more to keep it on my collection but its very rare to find it (I dont understand why). This album is excelent and also liked and enjoyed the cover song “Hot Stuff” by Donna Summer.

~Review by George Angel
Dan Lucas - Canada (1992)

Dan Lucas - Canada (1992)

Release of this CD: 1992 [CD Marlboro Music (Germany), Cat.# 262 926 / UPC: 5012981892623]
℗© 1992 Marlboro Music, a Division of IDE International Design & Entertainment GmbH
Distributed by Virgin
Made in Germany

Credits:
Backing Vocals – Andy Slavik, Angie Layne, Dan Lucas, Jim Foster, J. Sieber, Rocko Bourgeois, Robert Papst
Bass – Ed Straker
Co-producer – Günther Skitschak
Drums – Leo Johnson
Guitar – Jim Foster (tracks: 1), Les Chak, Robert Papst
Keyboards, Synthesizer – Robert Papst
Lead Vocals – Dan Lucas
Organ [Hammond] – Andy Slavik, Robert Papst
Producer – Robert Papst
Saxophone – Tony Lakatos (tracks: 10)

Tracklist:

01. Someone’s Girl (04:00)
02. Wild Wild Wild (03:37)
03. Canadian Dream (05:05)
04. Hold On Me (04:11)
05. Over The Edge (03:41)
06. Hide In The Night (03:46)
07. The Fire (03:02)
08. Into The Night (02:54)
09. I’m Sailing (04:14)
10. Coming Home (04:01)
11. The Movie (09:36)
12. Hot Stuff (03:44)
13. Canadian Dream Reprise (00:36)

EAC log
Exact Audio Copy V1.1 from 23. June 2015

Отчёт EAC об извлечении, выполненном 18. января 2017, 19:38

Dan Lucas / Canada (262 926)

Дисковод: PLEXTOR BD-R PX-B950SA Adapter: 1 ID: 0

Режим чтения : Достоверность
Использование точного потока : Да
Отключение кэша аудио : Да
Использование указателей C2 : Нет

Коррекция смещения при чтении : 6
Способность читать области Lead-in и Lead-out : Нет
Заполнение пропущенных сэмплов тишиной : Да
Удаление блоков с тишиной в начале и конце : Нет
При вычислениях CRC использовались нулевые сэмплы : Да
Интерфейс : Встроенный Win32-интерфейс для Win NT/2000

Выходной формат : Пользовательский кодировщик
Выбранный битрейт : 1024 kBit/s
Качество : Высокий
Добавление ID3-тега : Нет
Утилита сжатия : C:Program Files (x86)Exact Audio CopyFLACFLAC.EXE
Дополнительные параметры : -6 -V -T "ARTIST=%artist%" -T "TITLE=%title%" -T "ALBUM=%albumtitle%" -T "DATE=%year%" -T "TRACKNUMBER=%tracknr%" -T "GENRE=%genre%" -T "COMMENT=%comment%" -T "BAND=%albuminterpret%" -T "ALBUMARTIST=%albuminterpret%" -T "COMPOSER=%composer%" %haslyrics%–tag-from-file=LYRICS="%lyricsfile%"%haslyrics% -T "DISCNUMBER=%cdnumber%" -T "TOTALDISCS=%totalcds%" -T "TOTALTRACKS=%numtracks%" %hascover%–picture="%coverfile%"%hascover% %source% -o %dest%

TOC извлечённого CD

Трек | Старт | Длительность | Начальный сектор | Конечный сектор
––––––––––––––––––––––––––––––––––-
1 | 0:00.33 | 3:59.70 | 33 | 18027
2 | 4:00.28 | 3:37.30 | 18028 | 34332
3 | 7:37.58 | 5:05.25 | 34333 | 57232
4 | 12:43.08 | 4:11.00 | 57233 | 76057
5 | 16:54.08 | 3:41.37 | 76058 | 92669
6 | 20:35.45 | 3:45.63 | 92670 | 109607
7 | 24:21.33 | 3:01.50 | 109608 | 123232
8 | 27:23.08 | 2:54.25 | 123233 | 136307
9 | 30:17.33 | 4:14.37 | 136308 | 155394
10 | 34:31.70 | 4:00.63 | 155395 | 173457
11 | 38:32.58 | 9:35.50 | 173458 | 216632
12 | 48:08.33 | 3:43.50 | 216633 | 233407
13 | 51:52.08 | 0:35.50 | 233408 | 236082

Характеристики диапазона извлечения и сообщения об ошибках

Выбранный диапазон

Имя файла G:RIPDan Lucas 1992 FLAC by alzalDan Lucas – Canada (262 926).wav

Пиковый уровень 99.9 %
Скорость извлечения 8.5 X
Качество диапазона 100.0 %
CRC теста E55DDFF0
CRC копии E55DDFF0
Копирование… OK

Ошибок не произошло

AccurateRip: сводка

Трек 1 : извлечено точно (доверие 2) [B1CBC63A] (AR v2)
Трек 2 : извлечено точно (доверие 2) [74B98E13] (AR v2)
Трек 3 : извлечено точно (доверие 2) [1BF9AF92] (AR v2)
Трек 4 : извлечено точно (доверие 2) [4D9C76DB] (AR v2)
Трек 5 : извлечено точно (доверие 2) [42D3AC16] (AR v2)
Трек 6 : извлечено точно (доверие 2) [4FFA3CA3] (AR v2)
Трек 7 : извлечено точно (доверие 2) [CE3263E1] (AR v2)
Трек 8 : извлечено точно (доверие 2) [FC4C3D85] (AR v2)
Трек 9 : извлечено точно (доверие 2) [033E6535] (AR v2)
Трек 10 : извлечено точно (доверие 2) [281E8278] (AR v2)
Трек 11 : извлечено точно (доверие 2) [A1589A6E] (AR v2)
Трек 12 : извлечено точно (доверие 2) [607E0D83] (AR v2)
Трек 13 : извлечено точно (доверие 2) [CACE5EBA] (AR v2)

Все треки извлечены точно

Конец отчёта

–– CUETools DB Plugin V2.1.6

[CTDB TOCID: 6FBwTKt6kNmgOBTTB3Al.02PCs8-] found
Submit result: 6FBwTKt6kNmgOBTTB3Al.02PCs8- has been confirmed
Track | CTDB Status
1 | (2/2) Accurately ripped
2 | (2/2) Accurately ripped
3 | (2/2) Accurately ripped
4 | (2/2) Accurately ripped
5 | (2/2) Accurately ripped
6 | (2/2) Accurately ripped
7 | (2/2) Accurately ripped
8 | (2/2) Accurately ripped
9 | (2/2) Accurately ripped
10 | (2/2) Accurately ripped
11 | (2/2) Accurately ripped
12 | (2/2) Accurately ripped
13 | (2/2) Accurately ripped

==== Контрольная сумма отчёта 94E91629499E1FD50A297D6D26DC7E824B294E7174EA7B04F3C64E8BB8B9075B ====

Dynamic Range Meter log
––––––––––––––––––––––––––––––––––––––––
Analyzed: Dan Lucas / Canada (262 926)
––––––––––––––––––––––––––––––––––––––––

DR Peak RMS Duration Track
––––––––––––––––––––––––––––––––––––––––
DR13 -1.10 dB -15.91 dB 4:00 01-Someone’s Girl
DR14 0.00 dB -15.65 dB 3:37 02-Wild Wild Wild
DR13 -0.20 dB -15.63 dB 5:05 03-Canadian Dream
DR13 -0.44 dB -15.94 dB 4:11 04-Hold On Me
DR14 0.00 dB -16.32 dB 3:41 05-Over The Edge
DR13 -0.87 dB -16.58 dB 3:46 06-Hide In The Night
DR14 -0.97 dB -16.46 dB 3:02 07-The Fire
DR13 -1.11 dB -16.33 dB 2:54 08-Into The Night
DR13 -0.28 dB -15.48 dB 4:14 09-I’m Sailing
DR14 -0.45 dB -15.86 dB 4:01 10-Coming Home
DR13 0.00 dB -15.66 dB 9:36 11-The Movie
DR13 -0.33 dB -15.42 dB 3:44 12-Hot Stuff
DR11 -4.83 dB -18.35 dB 0:36 13-Canadian Dream (Reprise)
––––––––––––––––––––––––––––––––––––––––

Number of tracks: 13
Official DR value: DR13

Samplerate: 44100 Hz
Channels: 2
Bits per sample: 16
Bitrate: 944 kbps
Codec: FLAC
================================================================================

All thanks to alzal

password: BlondStyle

Dan Lucas – Canada (1992) Download, Warez, DDL, Free, Full Album, Torrent, Legal.

Download