Daevid Allen – Good Morning! (1976) Remastered Edition 2007 | ViralVideoPk

Daily Dose of Free Downloads

Daevid Allen – Good Morning! (1976) Remastered Edition 2007

Download

Daevid Allen - Good Morning! (1976) Remastered Edition 2007

Daevid Allen – Good Morning! (1976) Remastered Edition 2007
EAC | FLAC | Image (Cue&Log) ~ 277 Mb (incl 5%) | Mp3 (CBR320) ~ 128 Mb (incl 5%) | Scans included
Art Rock, Prog Rock, Psychedelic, Canterbury Scene | Label: Esoteric | # ECLEC 2004 | 00:47:07

2007 digitally remastered reissue of this 1976 solo album from the Gong leader. In 1975, following his departure from Gong, the highly influential group he had founded, Daevid Allen sought musical solace in the village of Deja on the island of Mallorca. Here he encountered a group of Catalan musicians, Euterpe, with whom Allen began a collaboration. Recorded in Mallorca, this album was released by Virgin Records to great acclaim, being a unique work that was regarded by fans and critics as being equally as good as anything he recorded with Gong, if not better.

Daevid Allen’s flights of fancy and cheerful hippie proselytizing have given birth to projects as diverse as the progressive rock of Gong as well as naturalistic solo works such as Good Morning. This record was recorded in 1976, six years after Allen’s last solo outing, Banana Moon. It differs markedly from that record, as well as his group work with Gong. Good Morning is more acoustic, with no drums, and was recorded on a four-track tape machine at Allen’s Majorcan home, "Bananamoon Observatory." As with Gong, Allen plays his cosmic-effected "glissando" guitar, and he calls on girlfriend Gilli Smyth for her signature "space whisper." Additionally, he employs an unknown Spanish group called Euterpe. The songs here merge together well and have a childlike wonder, punctuated by Allen’s singsong delivery and some peaceful synth. Side one is the quiet, poetic side, whereas side two comes closest to Gong, with the moody 11-minute "Wise Man in Your Heart." Where previously Allen leaned on the compositional skills of Smyth, Christian Tritsch, and others, all of the songs on this record were written by Allen. The word that best describes his songwriting would be relaxed. Allen doesn’t strive for profundity, and in so doing creates a work filled with humility and charm.

Review by Peter Kurtz, Allmusic.com

Daevid Allen - Good Morning! (1976) Remastered Edition 2007

Daevid Allen at Allmusic
Daevid Allen Website
Daevid Allen Wiki

Tracklist:

1. Children of the New World (3:42)
2. Good Morning (5:17)
3. Spirit (4:47)
4. Song of Satisfaction (2:17)
5. Have You Seen My Friend? (3:37)
6. French Garden (3:23)
7. Wise Man in Your Heart (11:28)
8. She Doesn’t She (2:39)
9. Euterpe Gratitude Piece (9:50) – CD Bonus track

EAC log
Exact Audio Copy V0.99 prebeta 4 from 23. January 2008

EAC extraction logfile from 9. March 2008, 17:18

Daevid Allen / Good Morning

Used drive : LITE-ON DVDRW LH-20A1P Adapter: 0 ID: 2

Read mode : Secure
Utilize accurate stream : Yes
Defeat audio cache : Yes
Make use of C2 pointers : No

Read offset correction : 6
Overread into Lead-In and Lead-Out : No
Fill up missing offset samples with silence : Yes
Delete leading and trailing silent blocks : No
Null samples used in CRC calculations : Yes
Used interface : Installed external ASPI interface

Used output format : Internal WAV Routines
Sample format : 44.100 Hz; 16 Bit; Stereo

TOC of the extracted CD

Track | Start | Length | Start sector | End sector
––––––––––––––––––––––––––––-
1 | 0:00.00 | 3:42.62 | 0 | 16711
2 | 3:42.62 | 5:18.04 | 16712 | 40565
3 | 9:00.66 | 4:47.47 | 40566 | 62137
4 | 13:48.38 | 2:16.65 | 62138 | 72402
5 | 16:05.28 | 3:37.32 | 72403 | 88709
6 | 19:42.60 | 3:23.74 | 88710 | 104008
7 | 23:06.59 | 11:28.39 | 104009 | 155647
8 | 34:35.23 | 2:40.25 | 155648 | 167672
9 | 37:15.48 | 9:52.08 | 167673 | 212080

Range status and errors

Selected range

Filename D:flogger77Daevid Allen – Good Morning.wav

Peak level 98.8 %
Range quality 100.0 %
Copy CRC 1DF6DEFF
Copy OK

No errors occurred

AccurateRip summary

Track 1 not present in database
Track 2 not present in database
Track 3 not present in database
Track 4 not present in database
Track 5 not present in database
Track 6 not present in database
Track 7 not present in database
Track 8 not present in database
Track 9 not present in database

None of the tracks are present in the AccurateRip database

End of status report

AR log
[CUETools log; Date: 24.12.2016 18:45:47; Version: 2.1.4]
[CTDB TOCID: gk91RU27HG7nnYpo29E5ZEArJRQ-] found.
Track | CTDB Status
1 | (7/7) Accurately ripped
2 | (7/7) Accurately ripped
3 | (7/7) Accurately ripped
4 | (7/7) Accurately ripped
5 | (7/7) Accurately ripped
6 | (7/7) Accurately ripped
7 | (7/7) Accurately ripped
8 | (7/7) Accurately ripped
9 | (7/7) Accurately ripped
[AccurateRip ID: 000e0984-00694d48-760b0b09] found.
Track [ CRC | V2 ] Status
01 [739bdab5|d1e11afb] (5+3/8) Accurately ripped
02 [ba89d21a|fc62db0c] (5+3/8) Accurately ripped
03 [460cbdcd|d424caed] (5+3/8) Accurately ripped
04 [2b3a53b0|9859ce8c] (6+3/9) Accurately ripped
05 [826dde1f|ef741b86] (6+3/9) Accurately ripped
06 [b954cda7|bde72df2] (6+3/9) Accurately ripped
07 [bc26a8ae|d09a059c] (6+3/9) Accurately ripped
08 [7b98ad22|799c342f] (6+3/9) Accurately ripped
09 [9a3f3b55|497420f4] (6+3/9) Accurately ripped

Track Peak [ CRC32 ] [W/O NULL] [ LOG ]
– 98,8 [1DF6DEFF] [3684C848] CRC32
01 98,8 [DB73F434] [BECF07BF]
02 98,8 [9111CD40] [31F28567]
03 98,8 [2E8AFC4D] [44FD78AF]
04 79,3 [9E8B8B15] [688126DA]
05 98,8 [8700B4D5] [965C33FA]
06 98,8 [59234EC6] [DF4FE81E]
07 98,8 [A964C0B8] [3967518A]
08 87,2 [84B5EFCF] [257EA830]
09 86,5 [BC7B250A] [F8AD8348]

DR log
foobar2000 1.2 / Dynamic Range Meter 1.1.1
log date: 2016-12-24 19:01:33

––––––––––––––––––––––––––––––––––––––––
Analyzed: Daevid Allen / Good Morning
––––––––––––––––––––––––––––––––––––––––

DR Peak RMS Duration Track
––––––––––––––––––––––––––––––––––––––––
DR12 -0.10 dB -15.31 dB 3:43 01-Children Of The New World
DR13 -0.10 dB -16.07 dB 5:18 02-Good Morning
DR10 -0.10 dB -13.21 dB 4:48 03-Spirit
DR13 -2.01 dB -18.76 dB 2:17 04-Songs Of Satisfaction
DR13 -0.10 dB -16.38 dB 3:37 05-Have You Seen My Friend?
DR12 -0.10 dB -14.97 dB 3:24 06-French Garden
DR14 -0.10 dB -16.74 dB 11:29 07-Wise Man In Your Heart
DR13 -1.19 dB -17.16 dB 2:40 08-She Doesn’t She …
DR11 -1.25 dB -14.60 dB 9:52 09-Euterpe Gratitude Piece (Bonus Track)
––––––––––––––––––––––––––––––––––––––––

Number of tracks: 9
Official DR value: DR12

Samplerate: 44100 Hz
Channels: 2
Bits per sample: 16
Bitrate: 739 kbps
Codec: FLAC
================================================================================

Daevid Allen - Good Morning! (1976) Remastered Edition 2007

Daevid Allen - Good Morning! (1976) Remastered Edition 2007

All thanks to original releaser – flogger77

More interesting music in My Blog

Daevid Allen – Good Morning! (1976) Remastered Edition 2007 Download, Warez, DDL, Free, Full Album, Torrent, Legal.

Download


  • Recent Posts

  • Recent Tags