Cyndi Lauper – A Night To Remember (1989) {Japan 1st Press}

Download
Cyndi Lauper - A Night To Remember (1989) {Japan 1st Press}

Cyndi Lauper – A Night To Remember (1989) {Japan 1st Press}
EAC Rip | FLAC (Img) + Cue + Log ~ 286 Mb | MP3 CBR320 ~ 105 Mb
Full Scans (JPG, 600 dpi) ~ 61 Mb | RAR 5% Recovery
Pop Rock, New Wave, Adult Contemporary | Epic / Sony #25-8P-5230

On True Colors, Cyndi Lauper began to edge her way into adult contemporary territory, but it was on her third album, A Night to Remember, that she concentrated all of her attention on becoming a self-consciously "mature" singer/songwriter. A Night to Remember doesn’t always work, but not because she’s incapable of performing polished, well-crafted middle-of-the-road material – "Time After Time" and "True Colors" prove that she could convincingly deliver ballads. Instead, the album bogs down because it assumes that labored arrangements and precisely detailed production are tantamount to musical sophistication. That said, there are some moments – such as the seductive "I Drove All Night" – that make a lasting impression, illustrating what Lauper was attempting to achieve with the record.

~ Stephen Thomas Erlewine, All Music
Official Website | Wiki | Discogs | All Music

***************

Cyndi Lauper - A Night To Remember (1989) {Japan 1st Press}

Cyndi Lauper - A Night To Remember (1989) {Japan 1st Press}

Track List:

01. Intro [0:00:27.55]
02. I Drove All Night [0:04:11.52]
03. Primitive [0:03:48.58]
04. My First Night Without You [0:03:01.27]
05. Like A Cat [0:03:25.03]
06. Heading West [0:03:55.35]
07. A Night To Remember [0:03:43.20]
08. Unconditional Love [0:03:56.35]
09. Insecurious [0:03:30.55]
10. Dancing With A Stranger [0:04:12.47]
11. I Don’t Want To Be Your Friend [0:04:22.03]
12. Kindred Spirit [0:01:15.40]
13. Hole In My Heart [0:03:59.10]

Personnel:
Cyndi Lauper – dulcimer, arranger, vocals, background vocals, producer, art direction
Angela Clemmons-Patrick, David Spinner, Frank Simms, Franke Previte, George Simms, Gordon Grody, Larry Blackmon, Nathan Leftenant, Tom Kelly, Tomi Jenkins – background vocals
Rockin’ Dopsie – accordion
Steve Ferrone – drums
Joe Bellia – drum machine
John McCurry – guitar, coral sitar
Eric Clapton – guitar (track 11)
Bobby Bandiera, Dave Dale, Paul Pesco, Rick Derringer, Rob Newhouse – guitar
George Recile – triangle, frotois
Carole Steele – percussion
Richard Travali – synthesizer
Peter Wood, Tommy Mandel – keyboards
John Turi – keyboards, saxophone
Jeff Bova – arranger, keyboards
Bakithi Khumalo, Bootsy Collins, Neil Jason, T.M. Stevens, Tom "T-Bone" Wolk – bass

EAC Log
Exact Audio Copy V1.3 from 2. September 2016

EAC extraction logfile from 12. August 2017, 10:17

Cyndi Lauper / A Night To Remember

Used drive : PLEXTOR DVDR PX-716A Adapter: 1 ID: 0

Read mode : Secure
Utilize accurate stream : Yes
Defeat audio cache : Yes
Make use of C2 pointers : No

Read offset correction : 30
Overread into Lead-In and Lead-Out : No
Fill up missing offset samples with silence : Yes
Delete leading and trailing silent blocks : No
Null samples used in CRC calculations : Yes
Used interface : Installed external ASPI interface

Used output format : User Defined Encoder
Selected bitrate : 1024 kBit/s
Quality : High
Add ID3 tag : No
Command line compressor : C:Program Files (x86)Exact Audio CopyFlacflac.exe
Additional command line options : -6 -V -T "ARTIST=%artist%" -T "TITLE=%title%" -T "ALBUM=%albumtitle%" -T "DATE=%year%" -T "TRACKNUMBER=%tracknr%" -T "GENRE=%genre%" -T "COMMENT=%comment%" -T "BAND=%albuminterpret%" -T "ALBUMARTIST=%albuminterpret%" -T "COMPOSER=%composer%" %haslyrics%–tag-from-file=LYRICS="%lyricsfile%"%haslyrics% -T "DISCNUMBER=%cdnumber%" -T "TOTALDISCS=%totalcds%" -T "TOTALTRACKS=%numtracks%" %hascover%–picture="%coverfile%"%hascover% %source% -o %dest%

TOC of the extracted CD

Track | Start | Length | Start sector | End sector
––––––––––––––––––––––––––––-
1 | 0:00.00 | 0:27.55 | 0 | 2079
2 | 0:27.55 | 4:11.52 | 2080 | 20956
3 | 4:39.32 | 3:48.58 | 20957 | 38114
4 | 8:28.15 | 3:01.27 | 38115 | 51716
5 | 11:29.42 | 3:25.03 | 51717 | 67094
6 | 14:54.45 | 3:55.35 | 67095 | 84754
7 | 18:50.05 | 3:43.20 | 84755 | 101499
8 | 22:33.25 | 3:56.35 | 101500 | 119234
9 | 26:29.60 | 3:30.55 | 119235 | 135039
10 | 30:00.40 | 4:12.47 | 135040 | 153986
11 | 34:13.12 | 4:22.03 | 153987 | 173639
12 | 38:35.15 | 1:15.40 | 173640 | 179304
13 | 39:50.55 | 3:59.10 | 179305 | 197239

Range status and errors

Selected range

Filename C:mmCyndi Lauper1989 – A Night To Remember [25-8P-5230]Cyndi Lauper – A Night To Remember.wav

Peak level 100.0 %
Extraction speed 9.7 X
Range quality 100.0 %
Test CRC 1DD23F16
Copy CRC 1DD23F16
Copy OK

No errors occurred

End of status report

–– CUETools DB Plugin V2.1.6

[CTDB TOCID: 5yf4EzwfO1zTI1cw5LG4F4dchSE-] found
Submit result: 5yf4EzwfO1zTI1cw5LG4F4dchSE- has been confirmed
Track | CTDB Status
1 | (55/55) Accurately ripped
2 | (55/55) Accurately ripped
3 | (55/55) Accurately ripped
4 | (55/55) Accurately ripped
5 | (55/55) Accurately ripped
6 | (55/55) Accurately ripped
7 | (55/55) Accurately ripped
8 | (55/55) Accurately ripped
9 | (55/55) Accurately ripped
10 | (55/55) Accurately ripped
11 | (55/55) Accurately ripped
12 | (55/55) Accurately ripped
13 | (55/55) Accurately ripped

DR Log
foobar2000 1.2.6 / Dynamic Range Meter 1.1.1
log date: 2017-10-10 00:05:30

––––––––––––––––––––––––––––––––––––––––
Analyzed: Cyndi Lauper / A Night To Remember
––––––––––––––––––––––––––––––––––––––––

DR Peak RMS Duration Track
––––––––––––––––––––––––––––––––––––––––
DR9 -24.07 dB -37.12 dB 0:28 01-Intro
DR12 -0.10 dB -14.94 dB 4:12 02-I Drove All Night
DR14 0.00 dB -16.05 dB 3:49 03-Primitive
DR12 -0.31 dB -15.17 dB 3:01 04-My First Night Without You
DR14 0.00 dB -16.96 dB 3:25 05-Like A Cat
DR12 0.00 dB -15.70 dB 3:55 06-Heading West
DR14 0.00 dB -16.84 dB 3:43 07-A Night To Remember
DR13 -1.50 dB -16.83 dB 3:56 08-Unconditional Love
DR13 0.00 dB -14.99 dB 3:31 09-Insecurious
DR15 0.00 dB -16.95 dB 4:13 10-Dancing With A Stranger
DR15 0.00 dB -17.81 dB 4:22 11-I Don’t Want To Be Your Friend
DR9 -25.13 dB -38.39 dB 1:16 12-Kindred Spirit
DR12 0.00 dB -12.83 dB 3:59 13-Hole In My Heart
––––––––––––––––––––––––––––––––––––––––

Number of tracks: 13
Official DR value: DR13

Samplerate: 44100 Hz
Channels: 2
Bits per sample: 16
Bitrate: 870 kbps
Codec: FLAC
================================================================================

CUETools Log
[CUETools log; Date: 10.10.2017 0:05:34; Version: 2.1.5]
[CTDB TOCID: 5yf4EzwfO1zTI1cw5LG4F4dchSE-] found.
Track | CTDB Status
1 | (61/61) Accurately ripped
2 | (61/61) Accurately ripped
3 | (61/61) Accurately ripped
4 | (61/61) Accurately ripped
5 | (61/61) Accurately ripped
6 | (61/61) Accurately ripped
7 | (61/61) Accurately ripped
8 | (61/61) Accurately ripped
9 | (61/61) Accurately ripped
10 | (61/61) Accurately ripped
11 | (61/61) Accurately ripped
12 | (61/61) Accurately ripped
13 | (61/61) Accurately ripped
[AccurateRip ID: 0014367a-00cf342d-9e0a450d] found.
Track [ CRC | V2 ] Status
01 [2d8b944a|36d3bdf8] (03+17/24) Accurately ripped
02 [9b8a73bd|1eda865f] (03+17/24) Accurately ripped
03 [92160f1f|1278b35a] (03+17/24) Accurately ripped
04 [388d41fc|ba460c45] (03+17/24) Accurately ripped
05 [6bd7c219|59427202] (03+17/24) Accurately ripped
06 [54afeea6|67eb0172] (03+17/24) Accurately ripped
07 [cd8d75d2|f0d7da29] (03+17/24) Accurately ripped
08 [22b1ff8f|2a094a69] (03+17/24) Accurately ripped
09 [3daa9070|cb4fefc8] (03+17/24) Accurately ripped
10 [2fefbc47|09655bf0] (03+17/24) Accurately ripped
11 [31d89607|dbc0592b] (03+17/24) Accurately ripped
12 [9139989f|7954e387] (03+17/24) Accurately ripped
13 [dcee856b|fd00cb05] (03+16/23) Accurately ripped
Offsetted by 227:
01 [697c1ada] (02/24) Accurately ripped
02 [08e74ddf] (02/24) Accurately ripped
03 [f8b7de81] (02/24) Accurately ripped
04 [ad62d012] (02/24) Accurately ripped
05 [916505be] (02/24) Accurately ripped
06 [51e6edb9] (02/24) Accurately ripped
07 [018f0b54] (02/24) Accurately ripped
08 [4d05eca5] (02/24) Accurately ripped
09 [91370d1a] (02/24) Accurately ripped
10 [6626a65b] (02/24) Accurately ripped
11 [57fd449e] (02/24) Accurately ripped
12 [f238b36e] (02/24) Accurately ripped
13 [069b9a8d] (02/23) Accurately ripped

Track Peak [ CRC32 ] [W/O NULL] [ LOG ]
– 100,0 [1DD23F16] [D261B1F3] CRC32
01 6,2 [D5C5D1AF] [27563E65]
02 98,8 [EF6E692C] [9A5ED40A]
03 100,0 [90035B10] [48B1F59A]
04 96,4 [AEB2B243] [04555BF5]
05 100,0 [24EA7CCE] [AF8C8A26]
06 100,0 [6EC7BCC4] [6F5D4DE5]
07 99,9 [1B7E15DB] [B8D51062]
08 84,1 [EEC43EBC] [3722EA82]
09 100,0 [7C6E9802] [7E3CCE17]
10 100,0 [002D5774] [399F0E88]
11 100,0 [4B480690] [91F62F45]
12 5,5 [F521DBF9] [42786974]
13 100,0 [2CEA393D] [B76A38F2]

Cyndi Lauper - A Night To Remember (1989) {Japan 1st Press}

All thanks go to sergych

>>> Cyndi Lauper in my Blog <<<

Download from icerbox.com:

Cyndi Lauper – A Night To Remember (1989) {Japan 1st Press} Download, Warez, DDL, Free, Full Album, Torrent, Legal.

Download