Cut Chemist meets Shortkut – Live At The Future Primitive Soundsession Version 1.1 (1998)

Download
Cut Chemist meets Shortkut - Live At The Future Primitive Soundsession Version 1.1 (1998)

Cut Chemist meets Shortkut – Live At The Future Primitive Soundsession Version 1.1 (1998)
EAC Rip | FLAC with CUE and log | scans | 355 mb
MP3 CBR 320kbps | RAR | 158 mb
Genre: turntablism, hip-hop, rap, soul, R&B, funk

Live At The Future Primitive Soundsession Version 1.1 is a 1998 live album by hip-hop DJ’s Cut Chemist and Shortkut. This was released on Future Primitive’s own label.

Cut Chemist meets Shortkut - Live At The Future Primitive Soundsession Version 1.1 (1998)

1. The Periodic Table (3:12)
2. Tiny Bells (1:10)
3. Life As A Shorty Shouldn’t Be So Rough (2:29)
4. Open/Close (0:53)
5. No Mistakes In This Number Song Remix (3:55)
6. Lesson 6 (5:28)
7. Fats Comet’s Tackhead Beat (2:43)
8. Chuck D Counts Down To Armageddon (3:18)
9. King Kumoniwanaleia (3:28)
10. Ready On The Right (6:05)
11. Solid Squealer (2:29)
12. Biggety Balls – Monkey = The Real Deal (1:55)
13. Let’s Dance On Planet Rock (4:34)
14. Werd! (2:31)
15. Moonbase Alpha (4:38)
16. Prince Of The Beats (2:08)
17. You Are Getting Scratchy (3:22)
18. Cak CA Ba Ba (1:35)
19. Slow Fresh (2:42)
20. Are You Ready? (2:08)
21. You Don’t Stop (3:11)
22. Who Rocks The House? (3:49)
23. Flight Of The Bumblebee (2:05)

Cut Chemist meets Shortkut - Live At The Future Primitive Soundsession Version 1.1 (1998)
EAC Log
Exact Audio Copy V1.1 from 23. June 2015

EAC extraction logfile from 26. January 2017, 8:01

Cut Chemist Meets Shortkut / Live At The Futureprimitive Soundsession Version 1.1

Used drive : TEAC DVD-ROM DV-28SW Adapter: 1 ID: 0

Read mode : Secure
Utilize accurate stream : Yes
Defeat audio cache : Yes
Make use of C2 pointers : No

Read offset correction : 6
Overread into Lead-In and Lead-Out : No
Fill up missing offset samples with silence : Yes
Delete leading and trailing silent blocks : No
Null samples used in CRC calculations : Yes
Used interface : Native Win32 interface for Win NT & 2000
Gap handling : Appended to previous track

Used output format : Internal WAV Routines
Sample format : 44.100 Hz; 16 Bit; Stereo

TOC of the extracted CD

Track | Start | Length | Start sector | End sector
––––––––––––––––––––––––––––-
1 | 0:00.00 | 3:12.07 | 0 | 14406
2 | 3:12.07 | 1:10.72 | 14407 | 19728
3 | 4:23.04 | 2:29.07 | 19729 | 30910
4 | 6:52.11 | 0:53.30 | 30911 | 34915
5 | 7:45.41 | 3:55.04 | 34916 | 52544
6 | 11:40.45 | 5:28.37 | 52545 | 77181
7 | 17:09.07 | 2:43.53 | 77182 | 89459
8 | 19:52.60 | 3:18.65 | 89460 | 104374
9 | 23:11.50 | 3:28.15 | 104375 | 119989
10 | 26:39.65 | 6:05.51 | 119990 | 147415
11 | 32:45.41 | 2:29.41 | 147416 | 158631
12 | 35:15.07 | 1:55.25 | 158632 | 167281
13 | 37:10.32 | 4:34.50 | 167282 | 187881
14 | 41:45.07 | 2:31.38 | 187882 | 199244
15 | 44:16.45 | 4:38.11 | 199245 | 220105
16 | 48:54.56 | 2:08.08 | 220106 | 229713
17 | 51:02.64 | 3:22.67 | 229714 | 244930
18 | 54:25.56 | 1:35.50 | 244931 | 252105
19 | 56:01.31 | 2:42.22 | 252106 | 264277
20 | 58:43.53 | 2:08.36 | 264278 | 273913
21 | 60:52.14 | 3:11.02 | 273914 | 288240
22 | 64:03.16 | 3:49.58 | 288241 | 305473
23 | 67:52.74 | 2:05.74 | 305474 | 314922

Track 1

Filename C:My DocumentsMy FLACCut Chemist meets Shortkut – Live At The Future Primitive Soundsession Version 1.1 (1998) [FLAC]1 – The Periodic Table.wav

Pre-gap length 0:00:02.00

Peak level 94.9 %
Extraction speed 2.7 X
Track quality 100.0 %
Test CRC 43FAE596
Copy CRC 43FAE596
Accurately ripped (confidence 7) [43EE7B4B] (AR v2)
Copy OK

Track 2

Filename C:My DocumentsMy FLACCut Chemist meets Shortkut – Live At The Future Primitive Soundsession Version 1.1 (1998) [FLAC]2 – Tiny Bells.wav

Peak level 84.1 %
Extraction speed 2.1 X
Track quality 100.0 %
Test CRC BD829514
Copy CRC BD829514
Accurately ripped (confidence 7) [08977748] (AR v2)
Copy OK

Track 3

Filename C:My DocumentsMy FLACCut Chemist meets Shortkut – Live At The Future Primitive Soundsession Version 1.1 (1998) [FLAC]3 – Life As A Shorty Shouldn’t Be So Rough.wav

Peak level 81.7 %
Extraction speed 2.6 X
Track quality 100.0 %
Test CRC 9B860EF5
Copy CRC 9B860EF5
Accurately ripped (confidence 7) [828CA153] (AR v2)
Copy OK

Track 4

Filename C:My DocumentsMy FLACCut Chemist meets Shortkut – Live At The Future Primitive Soundsession Version 1.1 (1998) [FLAC]4 – Close.wav

Peak level 60.8 %
Extraction speed 2.1 X
Track quality 100.0 %
Test CRC 99828276
Copy CRC 99828276
Accurately ripped (confidence 7) [CD15159D] (AR v2)
Copy OK

Track 5

Filename C:My DocumentsMy FLACCut Chemist meets Shortkut – Live At The Future Primitive Soundsession Version 1.1 (1998) [FLAC]5 – No Mistakes Allowed In This Number Song (Remix).wav

Peak level 88.9 %
Extraction speed 2.8 X
Track quality 99.9 %
Test CRC D2F934DE
Copy CRC D2F934DE
Accurately ripped (confidence 7) [2D2BFA25] (AR v2)
Copy OK

Track 6

Filename C:My DocumentsMy FLACCut Chemist meets Shortkut – Live At The Future Primitive Soundsession Version 1.1 (1998) [FLAC]6 – Lesson 6- The Lecture.wav

Peak level 94.4 %
Extraction speed 3.7 X
Track quality 100.0 %
Test CRC 10865CF3
Copy CRC 10865CF3
Accurately ripped (confidence 7) [D3B1ACFC] (AR v2)
Copy OK

Track 7

Filename C:My DocumentsMy FLACCut Chemist meets Shortkut – Live At The Future Primitive Soundsession Version 1.1 (1998) [FLAC]7 – Fats Comet’s Tackhead Beat.wav

Peak level 90.3 %
Extraction speed 3.5 X
Track quality 100.0 %
Test CRC A9045390
Copy CRC A9045390
Accurately ripped (confidence 7) [6E47C454] (AR v2)
Copy OK

Track 8

Filename C:My DocumentsMy FLACCut Chemist meets Shortkut – Live At The Future Primitive Soundsession Version 1.1 (1998) [FLAC]8 – Chuck D Counts Down To Armageddon.wav

Peak level 90.0 %
Extraction speed 3.1 X
Track quality 99.9 %
Test CRC 858DC816
Copy CRC 858DC816
Accurately ripped (confidence 7) [0654AEC2] (AR v2)
Copy OK

Track 9

Filename C:My DocumentsMy FLACCut Chemist meets Shortkut – Live At The Future Primitive Soundsession Version 1.1 (1998) [FLAC]9 – King Kumoniwanaleia.wav

Peak level 89.5 %
Extraction speed 4.0 X
Track quality 100.0 %
Test CRC 69E61D94
Copy CRC 69E61D94
Accurately ripped (confidence 7) [F33AD717] (AR v2)
Copy OK

Track 10

Filename C:My DocumentsMy FLACCut Chemist meets Shortkut – Live At The Future Primitive Soundsession Version 1.1 (1998) [FLAC]10 – Ready On The Right.wav

Peak level 86.9 %
Extraction speed 4.5 X
Track quality 100.0 %
Test CRC 7BEF4BEC
Copy CRC 7BEF4BEC
Accurately ripped (confidence 7) [2320AF20] (AR v2)
Copy OK

Track 11

Filename C:My DocumentsMy FLACCut Chemist meets Shortkut – Live At The Future Primitive Soundsession Version 1.1 (1998) [FLAC]11 – Solid Squealer.wav

Peak level 82.1 %
Extraction speed 4.1 X
Track quality 100.0 %
Test CRC FFDC74E0
Copy CRC FFDC74E0
Accurately ripped (confidence 7) [A5446048] (AR v2)
Copy OK

Track 12

Filename C:My DocumentsMy FLACCut Chemist meets Shortkut – Live At The Future Primitive Soundsession Version 1.1 (1998) [FLAC]12 – Biggety Balls – Monkey = The Real Deal.wav

Peak level 88.7 %
Extraction speed 3.9 X
Track quality 100.0 %
Test CRC F3D1D6C7
Copy CRC F3D1D6C7
Accurately ripped (confidence 7) [C4B3F813] (AR v2)
Copy OK

Track 13

Filename C:My DocumentsMy FLACCut Chemist meets Shortkut – Live At The Future Primitive Soundsession Version 1.1 (1998) [FLAC]13 – Let’s Dance On Planet Rock.wav

Peak level 90.1 %
Extraction speed 4.8 X
Track quality 100.0 %
Test CRC A7E00017
Copy CRC A7E00017
Accurately ripped (confidence 7) [6F183669] (AR v2)
Copy OK

Track 14

Filename C:My DocumentsMy FLACCut Chemist meets Shortkut – Live At The Future Primitive Soundsession Version 1.1 (1998) [FLAC]14 – Werd!.wav

Peak level 87.3 %
Extraction speed 4.5 X
Track quality 100.0 %
Test CRC A86F4504
Copy CRC A86F4504
Accurately ripped (confidence 7) [21B383B1] (AR v2)
Copy OK

Track 15

Filename C:My DocumentsMy FLACCut Chemist meets Shortkut – Live At The Future Primitive Soundsession Version 1.1 (1998) [FLAC]15 – Moonbase Alpha.wav

Peak level 68.9 %
Extraction speed 5.1 X
Track quality 100.0 %
Test CRC 3404E145
Copy CRC 3404E145
Accurately ripped (confidence 7) [332E3D2D] (AR v2)
Copy OK

Track 16

Filename C:My DocumentsMy FLACCut Chemist meets Shortkut – Live At The Future Primitive Soundsession Version 1.1 (1998) [FLAC]16 – Prince Of The Beats.wav

Peak level 75.9 %
Extraction speed 3.4 X
Track quality 99.9 %
Test CRC 1E8537B3
Copy CRC 1E8537B3
Accurately ripped (confidence 7) [27D20210] (AR v2)
Copy OK

Track 17

Filename C:My DocumentsMy FLACCut Chemist meets Shortkut – Live At The Future Primitive Soundsession Version 1.1 (1998) [FLAC]17 – You Are Getting Scratchy.wav

Peak level 49.8 %
Extraction speed 5.0 X
Track quality 100.0 %
Test CRC 6533E357
Copy CRC 6533E357
Accurately ripped (confidence 7) [3E06335E] (AR v2)
Copy OK

Track 18

Filename C:My DocumentsMy FLACCut Chemist meets Shortkut – Live At The Future Primitive Soundsession Version 1.1 (1998) [FLAC]18 – Cak Ca Ba Ba.wav

Peak level 91.0 %
Extraction speed 4.4 X
Track quality 100.0 %
Test CRC 2C91FEB2
Copy CRC 2C91FEB2
Accurately ripped (confidence 7) [016D5A08] (AR v2)
Copy OK

Track 19

Filename C:My DocumentsMy FLACCut Chemist meets Shortkut – Live At The Future Primitive Soundsession Version 1.1 (1998) [FLAC]19 – Slow Fresh.wav

Peak level 92.5 %
Extraction speed 5.0 X
Track quality 100.0 %
Test CRC DC49E43A
Copy CRC DC49E43A
Accurately ripped (confidence 7) [D7093F97] (AR v2)
Copy OK

Track 20

Filename C:My DocumentsMy FLACCut Chemist meets Shortkut – Live At The Future Primitive Soundsession Version 1.1 (1998) [FLAC]20 – Are You Ready.wav

Peak level 96.3 %
Extraction speed 3.7 X
Track quality 99.9 %
Test CRC 6F9B36C3
Copy CRC 6F9B36C3
Accurately ripped (confidence 7) [7A4DDCDB] (AR v2)
Copy OK

Track 21

Filename C:My DocumentsMy FLACCut Chemist meets Shortkut – Live At The Future Primitive Soundsession Version 1.1 (1998) [FLAC]21 – You Don’t Stop.wav

Peak level 85.7 %
Extraction speed 5.3 X
Track quality 100.0 %
Test CRC FEBF4949
Copy CRC FEBF4949
Accurately ripped (confidence 7) [481BCDB7] (AR v2)
Copy OK

Track 22

Filename C:My DocumentsMy FLACCut Chemist meets Shortkut – Live At The Future Primitive Soundsession Version 1.1 (1998) [FLAC]22 – Who Rocks The House.wav

Peak level 93.0 %
Extraction speed 5.5 X
Track quality 100.0 %
Test CRC EFADFDE0
Copy CRC EFADFDE0
Accurately ripped (confidence 7) [075ED7ED] (AR v2)
Copy OK

Track 23

Filename C:My DocumentsMy FLACCut Chemist meets Shortkut – Live At The Future Primitive Soundsession Version 1.1 (1998) [FLAC]23 – Flight Of The Bumblebee.wav

Peak level 70.1 %
Extraction speed 5.0 X
Track quality 100.0 %
Test CRC 03981CEC
Copy CRC 03981CEC
Accurately ripped (confidence 7) [6AEA42FA] (AR v2)
Copy OK

All tracks accurately ripped

No errors occurred

End of status report

–– CUETools DB Plugin V2.1.6

[CTDB TOCID: q5YApLt1LOpyrmbnnwNNp.T6Pw8-] found
Submit result: q5YApLt1LOpyrmbnnwNNp.T6Pw8- has been confirmed
Track | CTDB Status
1 | (13/13) Accurately ripped
2 | (13/13) Accurately ripped
3 | (13/13) Accurately ripped
4 | (13/13) Accurately ripped
5 | (13/13) Accurately ripped
6 | (12/13) Accurately ripped
7 | (13/13) Accurately ripped
8 | (13/13) Accurately ripped
9 | (13/13) Accurately ripped
10 | (13/13) Accurately ripped
11 | (13/13) Accurately ripped
12 | (13/13) Accurately ripped
13 | (12/13) Accurately ripped
14 | (13/13) Accurately ripped
15 | (13/13) Accurately ripped
16 | (12/13) Accurately ripped
17 | (13/13) Accurately ripped
18 | (13/13) Accurately ripped
19 | (12/13) Accurately ripped
20 | (11/13) Accurately ripped
21 | (12/13) Accurately ripped
22 | (12/13) Accurately ripped
23 | (11/13) Accurately ripped

==== Log checksum 43E10199BD6AFC73B0E2323654A618C4516602C1D3F2DC0EB5F64DCA46FEBE89 ====

Cut Chemist meets Shortkut - Live At The Future Primitive Soundsession Version 1.1 (1998)

Cut Chemist meets Shortkut – Live At The Future Primitive Soundsession Version 1.1 (1998) Download, Warez, DDL, Free, Full Album, Torrent, Legal.

Download