Cryonic Temple – Into The Glorious Battle (2017) [Digipak]

Download
Cryonic Temple - Into The Glorious Battle (2017) [Digipak]

Cryonic Temple – Into The Glorious Battle (2017) [Digipak]
EAC Rip | FLAC: Image+Cue+Log | 467 Mb | MP3 CBR 320 kbps | 153 Mb | Scans | 34 Mb | Time: 01:01:41
Scarlet Records | SC 320-0
Heavy/Power Metal

Cryonic Temple was founded in 1996 in Dalarna, Sweden. Together with Orphan Gypsy and Sabaton they are considered the originators of the new Power Metal wave in the early 2000s. Through the years they performed at festivals suchs as Sweden Rock Festival, HeadBangers Open Air, Sabaton Open Air, Peace And Love, Gothenburg Metal Festival, Motala Metal Festival, 2000 Decibel and many more. Cryonic Temple have also opened for Uriah Heep, Saxon, Tad Morose, Civil War, Lion’s Share and Paul Di’Anno. After 9 years of silence the band is finally going to release their 5th album on Scarlet Records. ‘Into The Glorious Battle’ is Cryonic Temple’s first concept album, an exciting story taking place in the future, made of the most dynamic songs the band have ever composed, still deeply rooted in the Power Metal genre but also open to new influences and sounds, including mind-blowing ballads. With this album Cryonic Temple find themselves at the top of their game.

Cryonic Temple - Into The Glorious Battle (2017) [Digipak]
Cryonic Temple
Wikipedia | Encyclopaedia Metallum

Track Listing

01. The Beginning Of A New Era (02:28)
02. Man Of A Thousand Faces (05:18)
03. All The Kingsmen (04:48)
04. Prepare For War (04:34)
05. Heroes Of The Day (05:12)
06. Mighty Eagle (03:32)
07. Into The Glory Battle (04:19)
08. The Speech (00:54)
09. Mean Streak (03:05)
10. Flying Over The Snowy Fields (04:13)
11. Can’t Stop The Heat (04:42)
12. This War Is Useless (Eulogy) (05:12)
13. Heavy Burden (05:32)
14. Freedom (07:55)

Produced by Alexander Backlund and Esa T. Ahonen

The Band

• Mattias Lilja – Vocals
• Esa Ahonen – Guitars, Keyboards
• Markus Grundström – Guitars, Backing vocals
• Roland Westbom – Bass, Backing vocals
• Micke Dahlkvist – Drums

EAC Log
Exact Audio Copy V1.3 from 2. September 2016

EAC extraction logfile from 19. May 2017, 20:27

Cryonic Temple / Into the Glorious Battle

Used drive : ATAPI iHAS122 W Adapter: 2 ID: 0

Read mode : Secure
Utilize accurate stream : Yes
Defeat audio cache : Yes
Make use of C2 pointers : No

Read offset correction : 48
Overread into Lead-In and Lead-Out : No
Fill up missing offset samples with silence : Yes
Delete leading and trailing silent blocks : No
Null samples used in CRC calculations : Yes
Used interface : Installed external ASPI interface

Used output format : User Defined Encoder
Selected bitrate : 1024 kBit/s
Quality : High
Add ID3 tag : No
Command line compressor : C:Program FilesFLACflac.exe
Additional command line options : -V -8 -T "Date=%year%" -T "Genre=%genre%" -T"COMMENT=Ripped by Ilijan – ilko" -8 -V %source%

TOC of the extracted CD

Track | Start | Length | Start sector | End sector
––––––––––––––––––––––––––––-
1 | 0:00.00 | 2:27.38 | 0 | 11062
2 | 2:27.38 | 5:17.37 | 11063 | 34874
3 | 7:45.00 | 4:48.00 | 34875 | 56474
4 | 12:33.00 | 4:33.38 | 56475 | 76987
5 | 17:06.38 | 5:11.37 | 76988 | 100349
6 | 22:18.00 | 3:31.38 | 100350 | 116212
7 | 25:49.38 | 4:19.00 | 116213 | 135637
8 | 30:08.38 | 0:54.00 | 135638 | 139687
9 | 31:02.38 | 3:04.37 | 139688 | 153524
10 | 34:07.00 | 4:13.00 | 153525 | 172499
11 | 38:20.00 | 4:41.38 | 172500 | 193612
12 | 43:01.38 | 5:12.00 | 193613 | 217012
13 | 48:13.38 | 5:31.37 | 217013 | 241874
14 | 53:45.00 | 7:55.00 | 241875 | 277499

Range status and errors

Selected range

Filename D:ilkoCryonic Temple – Into the Glorious Battle.wav

Peak level 98.5 %
Extraction speed 4.0 X
Range quality 100.0 %
Test CRC 0CE79CBE
Copy CRC 0CE79CBE
Copy OK

No errors occurred

AccurateRip summary

Track 1 not present in database
Track 2 not present in database
Track 3 not present in database
Track 4 not present in database
Track 5 not present in database
Track 6 not present in database
Track 7 not present in database
Track 8 not present in database
Track 9 not present in database
Track 10 not present in database
Track 11 not present in database
Track 12 not present in database
Track 13 not present in database
Track 14 not present in database

None of the tracks are present in the AccurateRip database

End of status report

–– CUETools DB Plugin V2.1.6

[CTDB TOCID: bZyapIXa8q7WCkrPUARXYC51K74-] found
Submit result: bZyapIXa8q7WCkrPUARXYC51K74- has been confirmed
Track | CTDB Status
1 | (1/1) Accurately ripped
2 | (1/1) Accurately ripped
3 | (1/1) Accurately ripped
4 | (1/1) Accurately ripped
5 | (1/1) Accurately ripped
6 | (1/1) Accurately ripped
7 | (1/1) Accurately ripped
8 | (1/1) Accurately ripped
9 | (1/1) Accurately ripped
10 | (1/1) Accurately ripped
11 | (1/1) Accurately ripped
12 | (1/1) Accurately ripped
13 | (1/1) Accurately ripped
14 | (1/1) Accurately ripped

==== Log checksum EADBE5881F3D32C91D8CA28EDAEC9602C407003F86B942E29F471C977D334465 ====

Many thanks to the original uploader: Ilijan

SEE also:
Cryonic Temple 2008 Immortal

……
Welcome to My Blog for more wonderful music!
……

Cryonic Temple – Into The Glorious Battle (2017) [Digipak] Download, Warez, DDL, Free, Full Album, Torrent, Legal.

Download