Cryonic Temple – Immortal (2008) Repost

Download
Cryonic Temple - Immortal (2008) Repost

Cryonic Temple – Immortal (2008)
EAC Rip | FLAC: Image+Cue+Log | 400 Mb | MP3 CBR 320 kbps | 129 Mb | Scans | 30 Mb | Time: 51:27
Metal Heaven | METAL HEAVEN 00061
Heavy/Power Metal

After the successful and highly acclaimed release of their latest, in total 3rd, studio recording entitled “In Thy Power” the band went through some necessary line-up changes as well as time off for writing new songs. Now the time is right for CRYONIC TEMPLE, to release their fourth album entitled “Immortal”. The new line-up consists of guitarists Esa Ahonen and Leif Collin, teamed up with the new singer Magnus Thurin (ex Mindscape), whose vocal style is influenced by Michael Kiske, Geoff Tate and Tony Martin.

Cryonic Temple - Immortal (2008) Repost
Cryonic Temple
Wikipedia | Encyclopaedia Metallum

Track Listing

01. Immortal (05:53)
02. Standing Tall (04:36)
03. Where Sadness Never Rests (06:00)
04. Beg Me (04:54)
05. Freedom Calling (04:48)
06. Fear Of The Rage (04:19)
07. Time (05:15)
08. Fight To Survive (04:28)
09. Train Of Destruction (05:20)
10. As I Sleep (03:54)
11. Departure (02:00)

Produced by Pelle Saether and Cryonic Temple

The Band

• Magnus Thurin – Vocals
• Esa Ahonen – Guitars
• Leif Collin – Guitars
• Björn Svensson – Bass
• Hans Karlin – Drums

EAC Log
Exact Audio Copy V1.3 from 2. September 2016

EAC extraction logfile from 11. July 2017, 15:39

Cryonic Temple / Immortal

Used drive : MATSHITADVD-RAM UJ8G6 Adapter: 1 ID: 0

Read mode : Secure
Utilize accurate stream : Yes
Defeat audio cache : Yes
Make use of C2 pointers : No

Read offset correction : 103
Overread into Lead-In and Lead-Out : No
Fill up missing offset samples with silence : Yes
Delete leading and trailing silent blocks : No
Null samples used in CRC calculations : Yes
Used interface : Native Win32 interface for Win NT & 2000

Used output format : User Defined Encoder
Selected bitrate : 1024 kBit/s
Quality : High
Add ID3 tag : No
Command line compressor : C:Program Files (x86)Exact Audio CopyFLACFLAC.EXE
Additional command line options : -V -8 -T "Date=%year%" -T"Genre=%genre%" -T"COMMENT=Ripped by Ilijan – ilko" -8 -V %source%

TOC of the extracted CD

Track | Start | Length | Start sector | End sector
––––––––––––––––––––––––––––-
1 | 0:00.00 | 5:52.73 | 0 | 26472
2 | 5:52.73 | 4:36.01 | 26473 | 47173
3 | 10:28.74 | 5:59.65 | 47174 | 74163
4 | 16:28.64 | 4:54.10 | 74164 | 96223
5 | 21:22.74 | 4:47.71 | 96224 | 117819
6 | 26:10.70 | 4:19.28 | 117820 | 137272
7 | 30:30.23 | 5:14.50 | 137273 | 160872
8 | 35:44.73 | 4:27.39 | 160873 | 180936
9 | 40:12.37 | 5:19.68 | 180937 | 204929
10 | 45:32.30 | 3:54.05 | 204930 | 222484
11 | 49:26.35 | 2:00.14 | 222485 | 231498

Range status and errors

Selected range

Filename D:ilkoCryonic Temple – Immortal.wav

Peak level 100.0 %
Extraction speed 2.4 X
Range quality 100.0 %
Test CRC 988D4C26
Copy CRC 988D4C26
Copy OK

No errors occurred

AccurateRip summary

Track 1 accurately ripped (confidence 3) [1509CF23] (AR v2)
Track 2 accurately ripped (confidence 3) [B3AFA115] (AR v2)
Track 3 accurately ripped (confidence 3) [59DFCBA9] (AR v2)
Track 4 accurately ripped (confidence 3) [93C964EA] (AR v2)
Track 5 accurately ripped (confidence 3) [620C4871] (AR v2)
Track 6 accurately ripped (confidence 3) [D710A338] (AR v2)
Track 7 accurately ripped (confidence 3) [B4CAD169] (AR v2)
Track 8 accurately ripped (confidence 3) [97B99939] (AR v2)
Track 9 accurately ripped (confidence 3) [D710C1A2] (AR v2)
Track 10 accurately ripped (confidence 3) [305346A9] (AR v2)
Track 11 accurately ripped (confidence 3) [5D1F80A4] (AR v2)

All tracks accurately ripped

End of status report

–– CUETools DB Plugin V2.1.6

[CTDB TOCID: sgIfQFuG1GwNFO8VtWMlsoz0aKo-] found
Submit result: sgIfQFuG1GwNFO8VtWMlsoz0aKo- has been confirmed
Track | CTDB Status
1 | (5/5) Accurately ripped
2 | (5/5) Accurately ripped
3 | (5/5) Accurately ripped
4 | (5/5) Accurately ripped
5 | (5/5) Accurately ripped
6 | (5/5) Accurately ripped
7 | (5/5) Accurately ripped
8 | (5/5) Accurately ripped
9 | (5/5) Accurately ripped
10 | (5/5) Accurately ripped
11 | (5/5) Accurately ripped

==== Log checksum DE44FB1803D28DB6A0DD8924DC65EBC3FB3443182A5F077A32F577C4F1CC1C73 ====

Many thanks to the original uploader: Ilijan

……
Welcome to My Blog for more wonderful music!
……

Cryonic Temple – Immortal (2008) Repost Download, Warez, DDL, Free, Full Album, Torrent, Legal.

Download