Country Joe McDonald – Peace On Earth (1984)

Download
Country Joe McDonald - Peace On Earth (1984)

Country Joe McDonald – Peace On Earth (1984)
EAC Rip | FLAC: Tracks+Cue+Log | 251 Mb | MP3 CBR 320 kbps | 106 Mb | Scans | Time: 44:35
One Way Records/Rag Baby Records | OW 31369
Folk Rock, Country Rock, Soft Rock

1984 release "Peace On Earth" with great production values was a critical success. What comes through loud and clear is a fresh, moving portrait of a man full of wisdom, compassion, and truly great songs.

Country Joe McDonald - Peace On Earth (1984)
Country Joe’s Place
Wikipedia | Amazon

Track Listing

01. Live In Peace (03:05)
02. Sunshine (03:44)
03. Let It Rain (04:40)
04. You Can Get It If You Really Want (03:05)
05. War Hero (02:38)
06. Feeling Better (03:42)
07. The Girl Next Door (03:42)
08. Darlin’ Dan (The Rocket Man) (05:43)
09. Pledging My Love (02:35)
10. Garden Of Eden (04:12)
11. Space Lovin’ (03:29)
12. Peace On Earth (04:00)

Produced by Country Joe McDonald with Jesse Osbourne, David Hayes & Mike Herbick

Musicians

• Joe McDonald: vocals, guitars
• Bianca Thornton, Mark Springer, Pauline Lozano: backing vocals
• David Hayes: bass, backing vocals
• Peter Milio, Tom Donlinger: drums
• Greg Douglass, John Blakely, Phil Marsh: electric guitar
• Chris Kovacs, John Allair, Larry Dunlap, Tom Coster: keyboards
• Bob Weir, Mickey Hart, Raul Rekow: percussion
• Gene Stuart, Jack Lancaster: sax
• Maria Muldaur: vocals (track 9)

EAC Log
Exact Audio Copy V1.0 beta 3 from 29. August 2011

EAC extraction logfile from 27. November 2013, 8:48

Country Joe McDonald / Peace on Earth

Used drive : PLEXTOR DVDR PX-760A Adapter: 0 ID: 1

Read mode : Secure
Utilize accurate stream : Yes
Defeat audio cache : Yes
Make use of C2 pointers : No

Read offset correction : 30
Overread into Lead-In and Lead-Out : Yes
Fill up missing offset samples with silence : Yes
Delete leading and trailing silent blocks : No
Null samples used in CRC calculations : Yes
Used interface : Native Win32 interface for Win NT & 2000
Gap handling : Appended to previous track

Used output format : User Defined Encoder
Selected bitrate : 1024 kBit/s
Quality : High
Add ID3 tag : No
Command line compressor : C:Program Files (x86)Exact Audio CopyFlacflac.exe
Additional command line options : -8 -V -T "ARTIST=%artist%" -T "TITLE=%title%" -T "ALBUM=%albumtitle%" -T "DATE=%year%" -T "TRACKNUMBER=%tracknr%" -T "GENRE=%genre%" -T "COMMENT=EAC FLAC -8" %source%

TOC of the extracted CD

Track | Start | Length | Start sector | End sector
––––––––––––––––––––––––––––-
1 | 0:00.00 | 3:05.32 | 0 | 13906
2 | 3:05.32 | 3:43.50 | 13907 | 30681
3 | 6:49.07 | 4:39.70 | 30682 | 51676
4 | 11:29.02 | 3:04.40 | 51677 | 65516
5 | 14:33.42 | 2:38.08 | 65517 | 77374
6 | 17:11.50 | 3:41.47 | 77375 | 93996
7 | 20:53.22 | 3:41.50 | 93997 | 110621
8 | 24:34.72 | 5:43.10 | 110622 | 136356
9 | 30:18.07 | 2:34.33 | 136357 | 147939
10 | 32:52.40 | 4:12.00 | 147940 | 166839
11 | 37:04.40 | 3:29.15 | 166840 | 182529
12 | 40:33.55 | 4:00.10 | 182530 | 200539

Track 1

Filename L:Country Joe McDonald – Peace on Earth (1984) [FLAC] (OW31369]1 – Live in Peace.wav

Pre-gap length 0:00:02.00

Peak level 77.9 %
Extraction speed 2.1 X
Track quality 100.0 %
Test CRC 897A4BB2
Copy CRC 897A4BB2
Accurately ripped (confidence 3) [B2072352] (AR v1)
Copy OK

Track 2

Filename L:Country Joe McDonald – Peace on Earth (1984) [FLAC] (OW31369]2 – Sunshine.wav

Pre-gap length 0:00:02.20

Peak level 79.7 %
Extraction speed 2.2 X
Track quality 100.0 %
Test CRC BA37C5B0
Copy CRC BA37C5B0
Accurately ripped (confidence 3) [DC08CF10] (AR v1)
Copy OK

Track 3

Filename L:Country Joe McDonald – Peace on Earth (1984) [FLAC] (OW31369]3 – Let It Rain.wav

Peak level 76.6 %
Extraction speed 2.2 X
Track quality 100.0 %
Test CRC 7D449017
Copy CRC 7D449017
Accurately ripped (confidence 3) [7B905103] (AR v1)
Copy OK

Track 4

Filename L:Country Joe McDonald – Peace on Earth (1984) [FLAC] (OW31369]4 – You Can Get It If You Really Want.wav

Peak level 72.2 %
Extraction speed 2.1 X
Track quality 100.0 %
Test CRC 0026831C
Copy CRC 0026831C
Accurately ripped (confidence 3) [5D60BFC0] (AR v1)
Copy OK

Track 5

Filename L:Country Joe McDonald – Peace on Earth (1984) [FLAC] (OW31369]5 – War Hero.wav

Peak level 84.3 %
Extraction speed 2.0 X
Track quality 100.0 %
Test CRC 87DE29C6
Copy CRC 87DE29C6
Accurately ripped (confidence 3) [968130E2] (AR v1)
Copy OK

Track 6

Filename L:Country Joe McDonald – Peace on Earth (1984) [FLAC] (OW31369]6 – Feeling Better.wav

Peak level 76.3 %
Extraction speed 2.1 X
Track quality 100.0 %
Test CRC 9991FC52
Copy CRC 9991FC52
Accurately ripped (confidence 3) [2FA4C6D4] (AR v1)
Copy OK

Track 7

Filename L:Country Joe McDonald – Peace on Earth (1984) [FLAC] (OW31369]7 – The Girl Next Door.wav

Peak level 72.9 %
Extraction speed 2.1 X
Track quality 100.0 %
Test CRC 4B1017FC
Copy CRC 4B1017FC
Accurately ripped (confidence 3) [ECD81F15] (AR v1)
Copy OK

Track 8

Filename L:Country Joe McDonald – Peace on Earth (1984) [FLAC] (OW31369]8 – Darlin’ Dan (The Rocket Man).wav

Peak level 76.4 %
Extraction speed 2.3 X
Track quality 100.0 %
Test CRC 5A0DFAFB
Copy CRC 5A0DFAFB
Accurately ripped (confidence 3) [5383A6F1] (AR v1)
Copy OK

Track 9

Filename L:Country Joe McDonald – Peace on Earth (1984) [FLAC] (OW31369]9 – Pledging My Love.wav

Peak level 73.2 %
Extraction speed 2.0 X
Track quality 100.0 %
Test CRC 0D629E48
Copy CRC 0D629E48
Accurately ripped (confidence 3) [34685D1C] (AR v1)
Copy OK

Track 10

Filename L:Country Joe McDonald – Peace on Earth (1984) [FLAC] (OW31369]10 – Garden of Eden.wav

Peak level 77.4 %
Extraction speed 1.5 X
Track quality 99.9 %
Test CRC 1892AC9C
Copy CRC 1892AC9C
Accurately ripped (confidence 3) [FD2B4431] (AR v1)
Copy OK

Track 11

Filename L:Country Joe McDonald – Peace on Earth (1984) [FLAC] (OW31369]11 – Space Lovin’.wav

Peak level 77.4 %
Extraction speed 2.1 X
Track quality 100.0 %
Test CRC D57011CA
Copy CRC D57011CA
Accurately ripped (confidence 3) [3D0BC656] (AR v1)
Copy OK

Track 12

Filename L:Country Joe McDonald – Peace on Earth (1984) [FLAC] (OW31369]12 – Peace on Earth.wav

Peak level 71.5 %
Extraction speed 2.5 X
Track quality 100.0 %
Test CRC 4EA8570A
Copy CRC 4EA8570A
Accurately ripped (confidence 2) [861CEF39] (AR v1)
Copy OK

All tracks accurately ripped

No errors occurred

End of status report

–– CUETools DB Plugin V2.1.3

[CTDB TOCID: _OpMLDvrHKl2HTsnQ15GQgUi1pU-] found, Submit result: _OpMLDvrHKl2HTsnQ15GQgUi1pU- has been confirmed
[7278d3b4] (2/2) Accurately ripped

==== Log checksum 03682852A42B0DD21066A29C496B21F064D1DCD48EF6AB30F0C54C4E9094BB5A ====

Many thanks to the original uploader: oparin1954

SEE also:
Country Joe McDonald 1970 Tonight I’m Singing Just For You [Reissue 2001] Digipak
Country Joe McDonald 1971 Hold On It’s Coming [Reissue 2001] Digipak
Country Joe McDonald 1971 War War War [Reissue 2001] Digipak

Country Joe Band 2005 Turned Up And Turned On [DVD]

……
Welcome to My Blog for more wonderful music!
……

Country Joe McDonald – Peace On Earth (1984) Download, Warez, DDL, Free, Full Album, Torrent, Legal.

Download