Country Joe McDonald – Hold On It's Coming (1971) [Reissue 2001]

Download
Country Joe McDonald - Hold On It's Coming (1971) [Reissue 2001]

Country Joe McDonald – Hold On It’s Coming (1971) [Reissue 2001] Digipak
EAC Rip | FLAC: Tracks+Cue+Log | 224 Mb | MP3 CBR 320 kbps | 101 Mb | Scans | Time: 36:25
Vanguard/Akarma | VMD 79314/AK 171/2
Folk Rock, Country Rock, Psychedelic Rock

Many critics thought the hitchhiker was a reference to Christ—Joe won’t say; and many different allusions about the song and it’s meaning (if any) showed up in the press from time to time. The album itself got great radio play, but was confiusing to stores and buyers because of the cover. Many thought it was the soundtrack to a movie—since there was no movie, the records wasn’t adequately stocked. Goes to show what art can sometimes do to an album release.

by Bill Belmont, Berkeley, June 2001

Country Joe McDonald - Hold On It's Coming (1971) [Reissue 2001]
Country Joe’s Place
Wikipedia | Amazon
Country Joe McDonald - Hold On It's Coming (1971) [Reissue 2001]

Track Listing

01. Hold On It’s Coming No. 1 (03:52)
02. Air Algiers (02:32)
03. Only Love Is Worth This Pain (03:58)
04. Playing With Fire (03:20)
05. Travelling (04:26)
06. Joe’s Blues (04:15)
07. Mr. Big Pig (03:29)
08. Balancing On The Edge Of Time (03:12)
09. Jamila (03:27)
10. Hold On It’s Coming No. 2 (03:54)

Produced by Robin Menken & Bill Belmont

Musicians

• Country Joe McDonald: vocals, acoustic guitar, guitar
• Spencer Davis: back-up vocal, acoustic guitar, harmonica
• Rockhead: electric guitar
• Richard Sussman: piano
• Nick Buck: electric piano
• Alex Dmochowski: bass
• Eric Weissberg: bass
• Vic Smith: bass, electric guitar, back-up vocal
• Gary "Chicken" Hirsh: drums
• Greg Dewey: drums
• Mark Sidi Siddy: talking drum (Track 9)
• Ed Bogas: fiddle (Track 10)
• Peter Green: guitar (Tracks 2, 3)
• Danny Thompson: bass

EAC Log
Exact Audio Copy V0.99 prebeta 4 from 23. January 2008

EAC extraction logfile from 6. July 2009, 12:53

Country Joe McDonald / Hold On It’s Coming

Used drive : MAD DOG MD-16XDVD9A4 Adapter: 1 ID: 1

Read mode : Secure
Utilize accurate stream : Yes
Defeat audio cache : Yes
Make use of C2 pointers : No

Read offset correction : 48
Overread into Lead-In and Lead-Out : No
Fill up missing offset samples with silence : Yes
Delete leading and trailing silent blocks : No
Null samples used in CRC calculations : Yes
Used interface : Installed external ASPI interface
Gap handling : Appended to previous track

Used output format : Internal WAV Routines
Sample format : 44.100 Hz; 16 Bit; Stereo

TOC of the extracted CD

Track | Start | Length | Start sector | End sector
––––––––––––––––––––––––––––-
1 | 0:00.00 | 3:52.00 | 0 | 17399
2 | 3:52.00 | 2:31.72 | 17400 | 28796
3 | 6:23.72 | 3:58.03 | 28797 | 46649
4 | 10:22.00 | 3:20.00 | 46650 | 61649
5 | 13:42.00 | 4:25.72 | 61650 | 81596
6 | 18:07.72 | 4:15.03 | 81597 | 100724
7 | 22:23.00 | 3:29.00 | 100725 | 116399
8 | 25:52.00 | 3:12.00 | 116400 | 130799
9 | 29:04.00 | 3:27.00 | 130800 | 146324
10 | 32:31.00 | 3:53.40 | 146325 | 163839

Track 1

Filename E:GOLDCountry Joe McDonald – Starring In – Hold On It’s ComingCountry Joe McDonald Hold On It’s Coming 01 Hold On It’s Coming No. 1.wav

Pre-gap length 0:00:02.00

Peak level 89.6 %
Track quality 100.0 %
Test CRC CA6161AB
Copy CRC CA6161AB
Copy OK

Track 2

Filename E:GOLDCountry Joe McDonald – Starring In – Hold On It’s ComingCountry Joe McDonald Hold On It’s Coming 02 Air Algiers.wav

Pre-gap length 0:00:02.19

Peak level 85.7 %
Track quality 100.0 %
Test CRC 5E932C91
Copy CRC 5E932C91
Copy OK

Track 3

Filename E:GOLDCountry Joe McDonald – Starring In – Hold On It’s ComingCountry Joe McDonald Hold On It’s Coming 03 Only Love Is Worth This Pain.wav

Pre-gap length 0:00:02.19

Peak level 67.1 %
Track quality 100.0 %
Test CRC EE5A8217
Copy CRC EE5A8217
Copy OK

Track 4

Filename E:GOLDCountry Joe McDonald – Starring In – Hold On It’s ComingCountry Joe McDonald Hold On It’s Coming 04 Playing With Fire.wav

Pre-gap length 0:00:01.46

Peak level 88.0 %
Track quality 100.0 %
Test CRC 68594B0E
Copy CRC 68594B0E
Copy OK

Track 5

Filename E:GOLDCountry Joe McDonald – Starring In – Hold On It’s ComingCountry Joe McDonald Hold On It’s Coming 05 Travelling.wav

Pre-gap length 0:00:01.24

Peak level 65.8 %
Track quality 99.9 %
Test CRC 4E2AAE3A
Copy CRC 4E2AAE3A
Copy OK

Track 6

Filename E:GOLDCountry Joe McDonald – Starring In – Hold On It’s ComingCountry Joe McDonald Hold On It’s Coming 06 Joe’s Blues.wav

Pre-gap length 0:00:02.16

Peak level 59.6 %
Track quality 99.9 %
Test CRC 62609A26
Copy CRC 62609A26
Copy OK

Track 7

Filename E:GOLDCountry Joe McDonald – Starring In – Hold On It’s ComingCountry Joe McDonald Hold On It’s Coming 07 Mr Big Pig.wav

Pre-gap length 0:00:02.35

Peak level 72.9 %
Track quality 100.0 %
Test CRC E10D0909
Copy CRC E10D0909
Copy OK

Track 8

Filename E:GOLDCountry Joe McDonald – Starring In – Hold On It’s ComingCountry Joe McDonald Hold On It’s Coming 08 Balancing On The Edge of Time.wav

Pre-gap length 0:00:02.04

Peak level 60.3 %
Track quality 100.0 %
Test CRC 7DEC00E2
Copy CRC 7DEC00E2
Copy OK

Track 9

Filename E:GOLDCountry Joe McDonald – Starring In – Hold On It’s ComingCountry Joe McDonald Hold On It’s Coming 09 Jamila.wav

Pre-gap length 0:00:02.07

Peak level 76.0 %
Track quality 100.0 %
Test CRC E0B492F6
Copy CRC E0B492F6
Copy OK

Track 10

Filename E:GOLDCountry Joe McDonald – Starring In – Hold On It’s ComingCountry Joe McDonald Hold On It’s Coming 10 Hold On It’s Coming No. 2.wav

Pre-gap length 0:00:01.71

Peak level 85.1 %
Track quality 100.0 %
Test CRC 3A953854
Copy CRC 3A953854
Copy OK

No errors occurred

End of status report

Many thanks to the original uploader

SEE also:
Country Joe Band 2005 Turned Up And Turned On [DVD]

Country Joe McDonald – Hold On It's Coming (1971) [Reissue 2001] Download, Warez, DDL, Free, Full Album, Torrent, Legal.

Download