Cosmic Dealer – Child Of Tomorrow (2012) Repost

Download
Cosmic Dealer - Child Of Tomorrow (2012) Repost

Cosmic Dealer – Child Of Tomorrow (2012)
EAC Rip | FLAC: Image+Cue+Log | 431 Mb | MP3 CBR 320 kbps | 176 Mb | Scans | Time: 01:07:54
World In Sound | WIS-1045
Psychedelic Rock, Heavy Prog

This is the second previously unreleased album by the Dutch psychedelic hard rock band Cosmic Dealer. Their first album “Crystallization” from 1971 is an outstanding and rare masterpiece for all psych collectors and for sure one of the best Euro-Underground rock albums of the 70s. In 1971 the band was shortly disband but found together in 1973 with a few line-up changes but kept the same musical intention: heavy psychedelic, progressive and guitar driven hard rock, with catchy song writing, a few US-Westcoast flashes but also extended instrumental jam excursions.

This album contains 6 songs which were recorded in 1973, plus 3 demos from 1971 and as bonus you´ll find 7"EP with 4 live cuts (25 mins) and was recorded in 1971, including the title track from their debut Crystallization. The album is is carefully re-mastered to catch the real spirit of the beautiful and intense music and contains a poster and a with lots of photos and linernotes. Definitely a must-have piece for all 60s psych freaks!

Dutch Progressive Rock | World In Sound | Amazon

Track Listing

01. Child Of Tomorrow (03:41)
02. Sinners Confession (04:52)
03. You’re So Good (03:01)
04. Lifetime (09:12)
05. Society (04:29)
06. Julia (05:01)
07. Don’t You Know (Footprints In The Sand) (04:18)
08. Winterwind (We’ll Be Walking) (03:36)
09. For You (04:15)

Bonus tracks:
10. Crystallization (live) (06:25)
11. Don’t You Know (live) (06:12)
12. The Scene (live) (04:54)
13. Cosmic Jam (live) (07:59)

Produced by Cosmic Dealer

The Band

• Jan Reijnders: guitars, vocals
• Angelo Noce Santoro: bass
• Ad Vos: drums, percussion
• Kees de Blois: vocals, guitar
• Ed Boender: vocals, guitar
• Frans Poots – vocals (7, 8, 9, 10, 11, 12), fluite (9, 10)
• Leen Leendertse – guitar (7, 8), vocals (7, 8)

Notes

All tracks premastered by Angelo Noce Santoro.
Remastering by Winnie Leyh / Mannheim, Germany.

Cosmic Dealer was five musicians formed a band in Dordrecht in1968, called The Floating Fudge Featuring The Cosmic Dealer. The members were: Angelo Santoro (bass guitar), Ad Vos (drums), Frans Poots (vocals, flute, sax), Bas van der Pol (vocals, guitar, ex-Hawks) and Jan Reynders (vocals, guitar, ex-Hawks).

EAC Log
Exact Audio Copy V1.0 beta 3 from 29. August 2011

EAC extraction logfile from 24. February 2013, 21:11

Cosmic Dealer / Child Of Tomorrow

Used drive : HL-DT-STDVDRAM GT34N Adapter: 0 ID: 2

Read mode : Secure
Utilize accurate stream : Yes
Defeat audio cache : Yes
Make use of C2 pointers : No

Read offset correction : 103
Overread into Lead-In and Lead-Out : No
Fill up missing offset samples with silence : Yes
Delete leading and trailing silent blocks : No
Null samples used in CRC calculations : Yes
Used interface : Native Win32 interface for Win NT & 2000

Used output format : User Defined Encoder
Selected bitrate : 896 kBit/s
Quality : High
Add ID3 tag : Yes
Command line compressor : C:Program Files (x86)Exact Audio CopyFLACFLAC.EXE
Additional command line options : -6 -V -T "ARTIST=%artist%" -T "TITLE=%title%" -T "ALBUM=%albumtitle%" -T "DATE=%year%" -T "TRACKNUMBER=%tracknr%" -T "GENRE=%genre%" -T "COMMENT=%comment%" -T "BAND=%albuminterpret%" -T "ALBUMARTIST=%albuminterpret%" -T "COMPOSER=%composer%" %haslyrics%–tag-from-file=LYRICS="%lyricsfile%"%haslyrics% -T "DISCNUMBER=%cdnumber%" -T "TOTALDISCS=%totalcds%" -T "TOTALTRACKS=%numtracks%" %hascover%–picture="%coverfile%"%hascover% %source% -o %dest%

TOC of the extracted CD

Track | Start | Length | Start sector | End sector
––––––––––––––––––––––––––––-
1 | 0:00.00 | 3:40.64 | 0 | 16563
2 | 3:40.64 | 4:51.51 | 16564 | 38439
3 | 8:32.40 | 3:01.01 | 38440 | 52015
4 | 11:33.41 | 9:11.41 | 52016 | 93381
5 | 20:45.07 | 4:28.64 | 93382 | 113545
6 | 25:13.71 | 5:00.38 | 113546 | 136083
7 | 30:14.34 | 4:17.61 | 136084 | 155419
8 | 34:32.20 | 3:35.74 | 155420 | 171618
9 | 38:08.19 | 4:15.30 | 171619 | 190773
10 | 42:23.49 | 6:24.35 | 190774 | 219608
11 | 48:48.09 | 6:12.00 | 219609 | 247508
12 | 55:00.09 | 4:54.00 | 247509 | 269558
13 | 59:54.09 | 7:59.15 | 269559 | 305498

Range status and errors

Selected range

Filename D:FLACFLAC2Cosmic Dealer – Child Of TomorrowCosmic Dealer – Child Of Tomorrow.wav

Peak level 94.4 %
Extraction speed 2.2 X
Range quality 99.9 %
Test CRC B673F919
Copy CRC B673F919
Copy OK

No errors occurred

AccurateRip summary

Track 1 not present in database
Track 2 not present in database
Track 3 not present in database
Track 4 not present in database
Track 5 not present in database
Track 6 not present in database
Track 7 not present in database
Track 8 not present in database
Track 9 not present in database
Track 10 not present in database
Track 11 not present in database
Track 12 not present in database
Track 13 not present in database

None of the tracks are present in the AccurateRip database

End of status report

==== Log checksum C77FAC5B2F75B016B282598336989AE743A6874CD5A6403D794F6E0B0406D1CC ====

Many thanks to the original uploader: antonyart

SEE also:
Cosmic Dealer 1971 Crystallization [Reissue 1993]

……
Welcome to My Blog for more wonderful music!
……

Cosmic Dealer – Child Of Tomorrow (2012) Repost Download, Warez, DDL, Free, Full Album, Torrent, Legal.

Download