Corey Hart – Discography (1983-1998) [8 CD] | ViralVideoPk

Daily Dose of Free Downloads

Corey Hart – Discography (1983-1998) [8 CD]

Download

Corey Hart - Discography (1983-1998) [8 CD]

Corey Hart – Discography (1983-1998) [8 CD]
EAC Rip | FLAC: Tracks+Cue+Log | 2.3 Gb | MP3 CBR 320 kbps | 861 Mb | Scans | Total Time: 05:59:51
Aquarius/EMI, Sire/Warner Bros, Sony Music
New Wave, Pop Rock, Soft Rock

The hit single "Sunglasses at Night" propelled Canadian pop star Corey Hart to the top of the charts and helped his debut album, 1983’s First Offense, become a major hit in the United States and Canada. Born in Montreal on May 31, 1962, he traveled frequently as a child, living in the Bahamas with his father, but primarily following his mother through Mexico, Spain, and Florida, among other places. His early efforts to sign with Canadian record companies were fruitless; he then went to New York, worked for a while, and returned to Canada, eventually signing a contract with Aquarius Records. His cool, athletic good looks made it easy to promote him as a post-teen sex symbol, but while his songwriting never managed to get very deep, he sang with a passion that made his songs appealing. Boy in the Box, the 1985 follow-up to his debut, produced a hit single with "Never Surrender," which would remain his highest-charting song. His next album, Fields of Fire, met with some commercial success, but after that, his fortunes began to wane in the United States. His next two albums garnered little attention and 1990’s Bang was his last with Aquarius. 1992’s Attitude and Virtue was his first album with Sire/Warner, before he joined Columbia and released a self-titled album in 1996 and 1998’s Jade, which Hart describes as his best-sung album to date. He continues to write songs and lives in the Bahamas with his wife and three daughters. ~ Review by Stacia Proefrock

Corey Hart | Wikipedia
Corey Hart - Discography (1983-1998) [8 CD]
1983: First Offense
EAC Rip | FLAC: Tracks+Cue+Log | 251 Mb | MP3 CBR 320 kbps | 99 Mb | Scans | Time: 41:32
EMI America Records | CDP 7 46077 2

First Offense is the first album by Corey Hart, released in 1983. It includes the hit single "Sunglasses at Night" and the ballad "It Ain’t Enough". Hart was subsequently nominated for four Juno Awards and a Grammy Award for "Best New Artist".

Track Listing

01. Sunglasses At Night (05:18)
02. Peruvian Lady (04:21)
03. Lamp At Midnite (04:06)
04. She Got The Radio (03:57)
05. It Ain’t Enough (03:31)
06. Does She Love You (03:35)
07. Cheatin’ In School (04:25)
08. The World Is Fire (05:09)
09. At The Dance (03:32)
10. Jenny Fey (03:37)

EAC Log
Exact Audio Copy V0.99 prebeta 4 from 23. January 2008

EAC extraction logfile from 12. October 2008, 4:50

Corey Hart / First Offense

Used drive : PLEXTOR DVDR PX-716A Adapter: 2 ID: 0

Read mode : Secure
Utilize accurate stream : Yes
Defeat audio cache : Yes
Make use of C2 pointers : No

Read offset correction : 30
Overread into Lead-In and Lead-Out : No
Fill up missing offset samples with silence : Yes
Delete leading and trailing silent blocks : No
Null samples used in CRC calculations : No
Used interface : Native Win32 interface for Win NT & 2000
Gap handling : Appended to previous track

Used output format : User Defined Encoder
Selected bitrate : 1024 kBit/s
Quality : High
Add ID3 tag : Yes
Command line compressor : C:Program FilesExact Audio CopyFLACFLAC.EXE
Additional command line options : -6 -V -T "ARTIST=%a" -T "TITLE=%t" -T "ALBUM=%g" -T "DATE=%y" -T "TRACKNUMBER=%n" -T "GENRE=%m" -T "COMMENT=%e" %s -o %d

TOC of the extracted CD

Track | Start | Length | Start sector | End sector
––––––––––––––––––––––––––––-
1 | 0:01.00 | 5:17.50 | 75 | 23899
2 | 5:18.50 | 4:21.27 | 23900 | 43501
3 | 9:40.02 | 4:06.10 | 43502 | 61961
4 | 13:46.12 | 3:56.73 | 61962 | 79734
5 | 17:43.10 | 3:31.15 | 79735 | 95574
6 | 21:14.25 | 3:35.10 | 95575 | 111709
7 | 24:49.35 | 4:25.22 | 111710 | 131606
8 | 29:14.57 | 5:09.00 | 131607 | 154781
9 | 34:23.57 | 3:31.35 | 154782 | 170641
10 | 37:55.17 | 3:37.00 | 170642 | 186916

Track 1

Filename C:UsersAdministratorMy DocumentsEAC Rips1. Corey Hart – Sunglasses At Night.wav

Pre-gap length 0:00:03.00

Peak level 96.3 %
Track quality 100.0 %
Test CRC D7D972FF
Copy CRC D7D972FF
Accurately ripped (confidence 3) [BABC3644]
Copy OK

Track 2

Filename C:UsersAdministratorMy DocumentsEAC Rips2. Corey Hart – Peruvian Lady.wav

Pre-gap length 0:00:01.05

Peak level 78.0 %
Track quality 100.0 %
Test CRC A6B3EA9C
Copy CRC A6B3EA9C
Accurately ripped (confidence 3) [D4090FF9]
Copy OK

Track 3

Filename C:UsersAdministratorMy DocumentsEAC Rips3. Corey Hart – Lamp At Midnite.wav

Pre-gap length 0:00:00.12

Peak level 77.1 %
Track quality 100.0 %
Test CRC 3E1416BE
Copy CRC 3E1416BE
Accurately ripped (confidence 3) [5CE8960F]
Copy OK

Track 4

Filename C:UsersAdministratorMy DocumentsEAC Rips4. Corey Hart – She Got The Radio.wav

Pre-gap length 0:00:00.52

Peak level 72.8 %
Track quality 100.0 %
Test CRC F9DF3FC4
Copy CRC F9DF3FC4
Accurately ripped (confidence 3) [E4EA4E12]
Copy OK

Track 5

Filename C:UsersAdministratorMy DocumentsEAC Rips5. Corey Hart – It Ain’t Enough.wav

Pre-gap length 0:00:04.43

Peak level 82.9 %
Track quality 99.9 %
Test CRC DE838696
Copy CRC DE838696
Accurately ripped (confidence 3) [0A79F894]
Copy OK

Track 6

Filename C:UsersAdministratorMy DocumentsEAC Rips6. Corey Hart – Does She Love You.wav

Pre-gap length 0:00:01.15

Peak level 79.6 %
Track quality 100.0 %
Test CRC 25CE6EF1
Copy CRC 25CE6EF1
Accurately ripped (confidence 3) [B1492F3F]
Copy OK

Track 7

Filename C:UsersAdministratorMy DocumentsEAC Rips7. Corey Hart – Cheatin’ In School.wav

Pre-gap length 0:00:04.00

Peak level 94.5 %
Track quality 100.0 %
Test CRC 24F918E1
Copy CRC 24F918E1
Accurately ripped (confidence 3) [D00A8FFE]
Copy OK

Track 8

Filename C:UsersAdministratorMy DocumentsEAC Rips8. Corey Hart – The World Is Fire.wav

Pre-gap length 0:00:03.20

Peak level 86.2 %
Track quality 100.0 %
Test CRC E1F5A7E6
Copy CRC E1F5A7E6
Accurately ripped (confidence 3) [76F4D01D]
Copy OK

Track 9

Filename C:UsersAdministratorMy DocumentsEAC Rips9. Corey Hart – At The Dance.wav

Pre-gap length 0:00:04.37

Peak level 83.7 %
Track quality 100.0 %
Test CRC 59266009
Copy CRC 59266009
Accurately ripped (confidence 3) [9B8F5F54]
Copy OK

Track 10

Filename C:UsersAdministratorMy DocumentsEAC Rips10. Corey Hart – Jenny Fey.wav

Pre-gap length 0:00:03.25

Peak level 72.9 %
Track quality 100.0 %
Test CRC 5E1396F8
Copy CRC 5E1396F8
Accurately ripped (confidence 3) [E4B63DE6]
Copy OK

All tracks accurately ripped

No errors occurred

End of status report

Corey Hart - Discography (1983-1998) [8 CD]
1985: Boy In The Box
EAC Rip | FLAC: Tracks+Cue+Log | 281 Mb | MP3 CBR 320 kbps | 98 Mb | Scans | Time: 41:25
EMI America Records | CDP 7 46166 2

Boy In The Box is the second album by Corey Hart, released in 1985. It generated four charted singles. The song "Never Surrender" won a Juno Award in 1985 for "Single of the Year" and reached #3 on the U.S. Hot 100 (#1 for one week, sales only.)

Track Listing

01. Boy In The Box (04:30)
02. Komrade Kiev (04:20)
03. Never Surrender (04:58)
04. Sunny Place – Shady People (04:22)
05. Eurasian Eyes (05:30)
06. Everything In My Heart (04:54)
07. Silent Talking (04:37)
08. Waiting For You (04:27)
09. Water From The Moon (03:47)

EAC Log
Exact Audio Copy V0.99 prebeta 4 from 23. January 2008

EAC extraction logfile from 13. May 2009, 7:19

Corey Hart / Boy In The Box

Used drive : PLEXTOR DVDR PX-716A Adapter: 2 ID: 0

Read mode : Secure
Utilize accurate stream : Yes
Defeat audio cache : Yes
Make use of C2 pointers : No

Read offset correction : 30
Overread into Lead-In and Lead-Out : No
Fill up missing offset samples with silence : Yes
Delete leading and trailing silent blocks : No
Null samples used in CRC calculations : No
Used interface : Native Win32 interface for Win NT & 2000
Gap handling : Appended to previous track

Used output format : User Defined Encoder
Selected bitrate : 1024 kBit/s
Quality : High
Add ID3 tag : Yes
Command line compressor : C:Program FilesExact Audio CopyFLACFLAC.EXE
Additional command line options : -6 -V -T "ARTIST=%a" -T "TITLE=%t" -T "ALBUM=%g" -T "DATE=%y" -T "TRACKNUMBER=%n" -T "GENRE=%m" -T "COMMENT=%e" %s -o %d

TOC of the extracted CD

Track | Start | Length | Start sector | End sector
––––––––––––––––––––––––––––-
1 | 0:00.00 | 4:29.40 | 0 | 20214
2 | 4:29.40 | 4:20.15 | 20215 | 39729
3 | 8:49.55 | 4:58.20 | 39730 | 62099
4 | 13:48.00 | 4:21.50 | 62100 | 81724
5 | 18:09.50 | 5:30.12 | 81725 | 106486
6 | 23:39.62 | 4:53.50 | 106487 | 128511
7 | 28:33.37 | 4:36.38 | 128512 | 149249
8 | 33:10.00 | 4:27.07 | 149250 | 169281
9 | 37:37.07 | 3:47.20 | 169282 | 186326

Track 1

Filename C:UsersAdministratorMy DocumentsEAC Rips1. Corey Hart – Boy In The Box.wav

Pre-gap length 0:00:02.00

Peak level 94.2 %
Track quality 100.0 %
Test CRC DA10C812
Copy CRC DA10C812
Accurately ripped (confidence 6) [0379F799]
Copy OK

Track 2

Filename C:UsersAdministratorMy DocumentsEAC Rips2. Corey Hart – Komrade Kiev.wav

Pre-gap length 0:00:01.30

Peak level 93.1 %
Track quality 100.0 %
Test CRC C2062E59
Copy CRC C2062E59
Accurately ripped (confidence 6) [CA2259A9]
Copy OK

Track 3

Filename C:UsersAdministratorMy DocumentsEAC Rips3. Corey Hart – Never Surrender.wav

Pre-gap length 0:00:00.68

Peak level 100.0 %
Track quality 100.0 %
Test CRC 53F543BC
Copy CRC 53F543BC
Accurately ripped (confidence 6) [11D11353]
Copy OK

Track 4

Filename C:UsersAdministratorMy DocumentsEAC Rips4. Corey Hart – Sunny Place – Shady People.wav

Pre-gap length 0:00:02.50

Peak level 100.0 %
Track quality 99.9 %
Test CRC 067035C8
Copy CRC 067035C8
Accurately ripped (confidence 6) [BBD325CE]
Copy OK

Track 5

Filename C:UsersAdministratorMy DocumentsEAC Rips5. Corey Hart – Eurasian Eyes.wav

Pre-gap length 0:00:00.28

Peak level 100.0 %
Track quality 100.0 %
Test CRC C7918CEC
Copy CRC C7918CEC
Accurately ripped (confidence 6) [477D0CE1]
Copy OK

Track 6

Filename C:UsersAdministratorMy DocumentsEAC Rips6. Corey Hart – Everything In My Heart.wav

Pre-gap length 0:00:00.57

Peak level 100.0 %
Track quality 100.0 %
Test CRC 5E8A6D11
Copy CRC 5E8A6D11
Accurately ripped (confidence 6) [9042B2CF]
Copy OK

Track 7

Filename C:UsersAdministratorMy DocumentsEAC Rips7. Corey Hart – Silent Talking.wav

Pre-gap length 0:00:00.57

Peak level 100.0 %
Track quality 100.0 %
Test CRC 2E789192
Copy CRC 2E789192
Accurately ripped (confidence 6) [112882CF]
Copy OK

Track 8

Filename C:UsersAdministratorMy DocumentsEAC Rips8. Corey Hart – Waiting For You.wav

Pre-gap length 0:00:00.55

Peak level 100.0 %
Track quality 100.0 %
Test CRC 3F6D2B95
Copy CRC 3F6D2B95
Accurately ripped (confidence 6) [3A380C1F]
Copy OK

Track 9

Filename C:UsersAdministratorMy DocumentsEAC Rips9. Corey Hart – Water From the Moon.wav

Pre-gap length 0:00:01.27

Peak level 98.1 %
Track quality 100.0 %
Test CRC 15AAA76A
Copy CRC 15AAA76A
Accurately ripped (confidence 6) [7D6F315B]
Copy OK

All tracks accurately ripped

No errors occurred

End of status report

Corey Hart - Discography (1983-1998) [8 CD]
1986: Fields Of Fire
EAC Rip | FLAC: Tracks+Cue+Log | 314 Mb | MP3 CBR 320 kbps | 122 Mb | Scans | Time: 51:48
EMI America Records | CDP 7 46331 2

Fields Of Fire is the third album by Corey Hart, released in 1986. It generated five charted singles.

The album features that Elvis Presley cover as well as excellent songs such as I AM BY YOUR SIDE another huge hit from this album and DANCING IN MY MIRROR an uptempo rocker and TAKE MY HEART which should have been an huge hit. Album production and mixing is so great that you can find every track really enjoyable.

Track Listing

01. I Am By Your Side (04:38)
02. Dancin’ With My Mirror (04:19)
03. Take My Heart (04:23)
04. Angry Young Man (03:44)
05. Goin’ Home (05:21)
06. Can’t Help Falling In Love (03:25)
07. Broken Arrow (05:44)
08. Political Cry (04:06)
09. Is It Too Late? (04:37)
10. Jimmy Rae (05:30)
11. Blind Faith (06:00)

EAC Log
Exact Audio Copy V0.99 prebeta 4 from 23. January 2008

EAC extraction logfile from 13. May 2009, 14:13

Corey Hart / Fields of Fire

Used drive : PLEXTOR DVDR PX-716A Adapter: 2 ID: 0

Read mode : Secure
Utilize accurate stream : Yes
Defeat audio cache : Yes
Make use of C2 pointers : No

Read offset correction : 30
Overread into Lead-In and Lead-Out : No
Fill up missing offset samples with silence : Yes
Delete leading and trailing silent blocks : No
Null samples used in CRC calculations : No
Used interface : Native Win32 interface for Win NT & 2000
Gap handling : Appended to previous track

Used output format : User Defined Encoder
Selected bitrate : 1024 kBit/s
Quality : High
Add ID3 tag : Yes
Command line compressor : C:Program FilesExact Audio CopyFLACFLAC.EXE
Additional command line options : -6 -V -T "ARTIST=%a" -T "TITLE=%t" -T "ALBUM=%g" -T "DATE=%y" -T "TRACKNUMBER=%n" -T "GENRE=%m" -T "COMMENT=%e" %s -o %d

TOC of the extracted CD

Track | Start | Length | Start sector | End sector
––––––––––––––––––––––––––––-
1 | 0:00.00 | 4:38.15 | 0 | 20864
2 | 4:38.15 | 4:18.70 | 20865 | 40284
3 | 8:57.10 | 4:22.65 | 40285 | 59999
4 | 13:20.00 | 3:43.72 | 60000 | 76796
5 | 17:03.72 | 5:20.45 | 76797 | 100841
6 | 22:24.42 | 3:25.23 | 100842 | 116239
7 | 25:49.65 | 5:43.62 | 116240 | 142026
8 | 31:33.52 | 4:06.03 | 142027 | 160479
9 | 35:39.55 | 4:37.22 | 160480 | 181276
10 | 40:17.02 | 5:30.15 | 181277 | 206041
11 | 45:47.17 | 5:59.73 | 206042 | 233039

Track 1

Filename C:UsersAdministratorMy DocumentsEAC Rips1. Corey Hart – I Am By Your Side.wav

Pre-gap length 0:00:02.00

Peak level 71.4 %
Track quality 100.0 %
Test CRC B68B2E67
Copy CRC B68B2E67
Cannot be verified as accurate (confidence 3) [89C7D3FF], AccurateRip returned [296D4EAE]
Copy OK

Track 2

Filename C:UsersAdministratorMy DocumentsEAC Rips2. Corey Hart – Dancin’ With My Mirror.wav

Pre-gap length 0:00:02.33

Peak level 85.6 %
Track quality 100.0 %
Test CRC 8456C14F
Copy CRC 8456C14F
Cannot be verified as accurate (confidence 3) [E2A245B1], AccurateRip returned [D3303D0E]
Copy OK

Track 3

Filename C:UsersAdministratorMy DocumentsEAC Rips3. Corey Hart – Take My Heart.wav

Pre-gap length 0:00:02.10

Peak level 100.0 %
Track quality 100.0 %
Test CRC 22C1F2B6
Copy CRC 22C1F2B6
Cannot be verified as accurate (confidence 3) [11CE4E2F], AccurateRip returned [C5781DC5]
Copy OK

Track 4

Filename C:UsersAdministratorMy DocumentsEAC Rips4. Corey Hart – Angry Young Man.wav

Pre-gap length 0:00:01.50

Peak level 74.0 %
Track quality 100.0 %
Test CRC 6CF951BC
Copy CRC 6CF951BC
Cannot be verified as accurate (confidence 3) [19E211E2], AccurateRip returned [1993D717]
Copy OK

Track 5

Filename C:UsersAdministratorMy DocumentsEAC Rips5. Corey Hart – Goin’ Home.wav

Pre-gap length 0:00:00.37

Peak level 73.6 %
Track quality 100.0 %
Test CRC 078F319D
Copy CRC 078F319D
Cannot be verified as accurate (confidence 3) [32D84833], AccurateRip returned [5A5C834B]
Copy OK

Track 6

Filename C:UsersAdministratorMy DocumentsEAC Rips6. Corey Hart – Can’t Help Falling In Love.wav

Pre-gap length 0:00:02.15

Peak level 43.9 %
Track quality 100.0 %
Test CRC C18482B3
Copy CRC C18482B3
Cannot be verified as accurate (confidence 3) [3A8A46BB], AccurateRip returned [9AB96BD8]
Copy OK

Track 7

Filename C:UsersAdministratorMy DocumentsEAC Rips7. Corey Hart – Broken Arrow.wav

Pre-gap length 0:00:00.33

Peak level 76.6 %
Track quality 100.0 %
Test CRC 46B344C9
Copy CRC 46B344C9
Cannot be verified as accurate (confidence 3) [F4CC9FF5], AccurateRip returned [039E46A8]
Copy OK

Track 8

Filename C:UsersAdministratorMy DocumentsEAC Rips8. Corey Hart – Political Cry.wav

Pre-gap length 0:00:01.47

Peak level 89.4 %
Track quality 99.9 %
Test CRC D087270F
Copy CRC D087270F
Cannot be verified as accurate (confidence 3) [A756D1C0], AccurateRip returned [B8CE5FD4]
Copy OK

Track 9

Filename C:UsersAdministratorMy DocumentsEAC Rips9. Corey Hart – Is It Too Late.wav

Pre-gap length 0:00:01.18

Peak level 90.3 %
Track quality 99.9 %
Test CRC 413E4B9A
Copy CRC 413E4B9A
Cannot be verified as accurate (confidence 3) [BBDB0D27], AccurateRip returned [6E9CA7B6]
Copy OK

Track 10

Filename C:UsersAdministratorMy DocumentsEAC Rips10. Corey Hart – Jimmy Rae.wav

Pre-gap length 0:00:01.50

Peak level 73.6 %
Track quality 100.0 %
Test CRC D7342A24
Copy CRC D7342A24
Cannot be verified as accurate (confidence 3) [11B75CDB], AccurateRip returned [221BA318]
Copy OK

Track 11

Filename C:UsersAdministratorMy DocumentsEAC Rips11. Corey Hart – Blind Faith.wav

Peak level 66.4 %
Track quality 99.9 %
Test CRC 9F92E098
Copy CRC 9F92E098
Cannot be verified as accurate (confidence 3) [BF5AEDFA], AccurateRip returned [7299C605]
Copy OK

No tracks could be verified as accurate
You may have a different pressing from the one(s) in the database

No errors occurred

End of status report

Corey Hart - Discography (1983-1998) [8 CD]
1988: Young Man Running
EAC Rip | FLAC: Tracks+Cue+Log | 266 Mb | MP3 CBR 320 kbps | 98 Mb | Scans | Time: 41:42
EMI-Manhattan Records | CDP-7-48752-2

Young Man Running is the fourth album by Corey Hart, released in 1988. It charted in the U.S., reaching #126, and generated the hit single, "In Your Soul", which reached #38.

Track Listing

01. Don’t Take Me To The Racetrack (03:41)
02. In Your Soul (03:57)
03. Truth Will Set You Free (04:21)
04. Chase The Sun (03:18)
05. So It Goes (03:49)
06. Still In Love (03:41)
07. Spot You In A Coalmine (04:50)
08. Lone Wolf (03:41)
09. No Love Lost (04:02)
10. Crossroad Caravan (02:45)
11. Chippin’ Away (03:38)

EAC Log
Exact Audio Copy V0.99 prebeta 4 from 23. January 2008

EAC extraction logfile from 13. May 2009, 13:37

Corey Hart / Young Man Running

Used drive : PLEXTOR DVDR PX-716A Adapter: 2 ID: 0

Read mode : Secure
Utilize accurate stream : Yes
Defeat audio cache : Yes
Make use of C2 pointers : No

Read offset correction : 30
Overread into Lead-In and Lead-Out : No
Fill up missing offset samples with silence : Yes
Delete leading and trailing silent blocks : No
Null samples used in CRC calculations : No
Used interface : Native Win32 interface for Win NT & 2000
Gap handling : Appended to previous track

Used output format : User Defined Encoder
Selected bitrate : 1024 kBit/s
Quality : High
Add ID3 tag : Yes
Command line compressor : C:Program FilesExact Audio CopyFLACFLAC.EXE
Additional command line options : -6 -V -T "ARTIST=%a" -T "TITLE=%t" -T "ALBUM=%g" -T "DATE=%y" -T "TRACKNUMBER=%n" -T "GENRE=%m" -T "COMMENT=%e" %s -o %d

TOC of the extracted CD

Track | Start | Length | Start sector | End sector
––––––––––––––––––––––––––––-
1 | 0:00.00 | 3:40.37 | 0 | 16536
2 | 3:40.37 | 3:56.43 | 16537 | 34279
3 | 7:37.05 | 4:20.52 | 34280 | 53831
4 | 11:57.57 | 3:18.10 | 53832 | 68691
5 | 15:15.67 | 3:48.35 | 68692 | 85826
6 | 19:04.27 | 3:41.10 | 85827 | 102411
7 | 22:45.37 | 4:50.03 | 102412 | 124164
8 | 27:35.40 | 3:41.15 | 124165 | 140754
9 | 31:16.55 | 4:01.52 | 140755 | 158881
10 | 35:18.32 | 2:44.53 | 158882 | 171234
11 | 38:03.10 | 3:37.72 | 171235 | 187581

Track 1

Filename C:UsersAdministratorMy DocumentsEAC Rips1. Corey Hart – Don’t Take Me to the Racetrack.wav

Pre-gap length 0:00:02.00

Peak level 95.9 %
Track quality 99.9 %
Test CRC 9C4D8938
Copy CRC 9C4D8938
Cannot be verified as accurate (confidence 1) [2083C0DD], AccurateRip returned [D0C6521C]
Copy OK

Track 2

Filename C:UsersAdministratorMy DocumentsEAC Rips2. Corey Hart – In Your Soul.wav

Pre-gap length 0:00:01.42

Peak level 94.3 %
Track quality 100.0 %
Test CRC 88D7AD12
Copy CRC 88D7AD12
Cannot be verified as accurate (confidence 1) [C60D6FF1], AccurateRip returned [66091D2F]
Copy OK

Track 3

Filename C:UsersAdministratorMy DocumentsEAC Rips3. Corey Hart – Truth Will Set You Free.wav

Pre-gap length 0:00:03.70

Peak level 94.4 %
Track quality 100.0 %
Test CRC 9B428174
Copy CRC 9B428174
Cannot be verified as accurate (confidence 1) [C2E2EA40], AccurateRip returned [97796F64]
Copy OK

Track 4

Filename C:UsersAdministratorMy DocumentsEAC Rips4. Corey Hart – Chase the Sun.wav

Pre-gap length 0:00:01.30

Peak level 93.4 %
Track quality 100.0 %
Test CRC 8D992C34
Copy CRC 8D992C34
Cannot be verified as accurate (confidence 1) [5190E901], AccurateRip returned [B51CC8DA]
Copy OK

Track 5

Filename C:UsersAdministratorMy DocumentsEAC Rips5. Corey Hart – So It Goes.wav

Pre-gap length 0:00:03.47

Peak level 95.4 %
Track quality 99.9 %
Test CRC 1D1B03E3
Copy CRC 1D1B03E3
Cannot be verified as accurate (confidence 1) [83475B6E], AccurateRip returned [C15EDF29]
Copy OK

Track 6

Filename C:UsersAdministratorMy DocumentsEAC Rips6. Corey Hart – Still In Love.wav

Pre-gap length 0:00:03.35

Peak level 97.7 %
Track quality 99.9 %
Test CRC A530E1AF
Copy CRC A530E1AF
Cannot be verified as accurate (confidence 1) [4D821CA0], AccurateRip returned [4F5A3457]
Copy OK

Track 7

Filename C:UsersAdministratorMy DocumentsEAC Rips7. Corey Hart – Spot You in a Coalmine.wav

Pre-gap length 0:00:03.22

Peak level 94.1 %
Track quality 100.0 %
Test CRC A6CE080B
Copy CRC A6CE080B
Cannot be verified as accurate (confidence 1) [DE515498], AccurateRip returned [2DB192D4]
Copy OK

Track 8

Filename C:UsersAdministratorMy DocumentsEAC Rips8. Corey Hart – Lone Wolf.wav

Pre-gap length 0:00:02.63

Peak level 93.9 %
Track quality 100.0 %
Test CRC B825B6B9
Copy CRC B825B6B9
Cannot be verified as accurate (confidence 1) [97A4C6E8], AccurateRip returned [F60A1DCA]
Copy OK

Track 9

Filename C:UsersAdministratorMy DocumentsEAC Rips9. Corey Hart – No Love Lost.wav

Pre-gap length 0:00:02.53

Peak level 95.3 %
Track quality 100.0 %
Test CRC B193AEF2
Copy CRC B193AEF2
Cannot be verified as accurate (confidence 1) [DC17D7A1], AccurateRip returned [69A3A75D]
Copy OK

Track 10

Filename C:UsersAdministratorMy DocumentsEAC Rips10. Corey Hart – Crossroad Caravan.wav

Pre-gap length 0:00:03.60

Peak level 65.5 %
Track quality 99.9 %
Test CRC D1698BF5
Copy CRC D1698BF5
Cannot be verified as accurate (confidence 1) [9554299A], AccurateRip returned [4859C7A2]
Copy OK

Track 11

Filename C:UsersAdministratorMy DocumentsEAC Rips11. Corey Hart – Chippin’ Away.wav

Pre-gap length 0:00:03.43

Peak level 95.5 %
Track quality 100.0 %
Test CRC E761D452
Copy CRC E761D452
Cannot be verified as accurate (confidence 1) [5E62165C], AccurateRip returned [93C7B6B6]
Copy OK

No tracks could be verified as accurate
You may have a different pressing from the one(s) in the database

No errors occurred

End of status report

Corey Hart - Discography (1983-1998) [8 CD]
1990: Bang!
EAC Rip | FLAC: Tracks+Cue+Log | 303 Mb | MP3 CBR 320 kbps | 112 Mb | Scans | Time: 43:03
EMI-USA | CDP-7-92513-2

Bang! is the fifth album by Corey Hart, released in 1990. It was his last album to chart in the U.S., reaching #134, and generated just one hit single, "A Little Love", which reached #37. The track "Ballade for Nien Cheng" was inspired by Cheng’s memoir Life and Death in Shanghai.

"Chase the Sun" is a re-recorded version of a track from Hart’s previous album Young Man Running.

Track Listing

01. A Little Love (04:09)
02. BANG! (Starting Over) (03:48)
03. Rain On Me (04:38)
04. Chase The Sun (03:15)
05. Diamond Cowboy (04:33)
06. Icon (03:52)
07. Can’t Stand Losin’ You (04:31)
08. Kisses On The Train (04:16)
09. Art Of Color (04:17)
10. Slowburn (02:50)
11. Ballade For Nien Cheng (02:52)

EAC Log
Exact Audio Copy V0.99 prebeta 4 from 23. January 2008

EAC extraction logfile from 20. January 2009, 13:02

Corey Hart / Bang!

Used drive : PLEXTOR DVDR PX-716A Adapter: 2 ID: 0

Read mode : Secure
Utilize accurate stream : Yes
Defeat audio cache : Yes
Make use of C2 pointers : No

Read offset correction : 30
Overread into Lead-In and Lead-Out : No
Fill up missing offset samples with silence : Yes
Delete leading and trailing silent blocks : No
Null samples used in CRC calculations : No
Used interface : Native Win32 interface for Win NT & 2000
Gap handling : Appended to previous track

Used output format : User Defined Encoder
Selected bitrate : 1024 kBit/s
Quality : High
Add ID3 tag : Yes
Command line compressor : C:Program FilesExact Audio CopyFLACFLAC.EXE
Additional command line options : -6 -V -T "ARTIST=%a" -T "TITLE=%t" -T "ALBUM=%g" -T "DATE=%y" -T "TRACKNUMBER=%n" -T "GENRE=%m" -T "COMMENT=%e" %s -o %d

TOC of the extracted CD

Track | Start | Length | Start sector | End sector
––––––––––––––––––––––––––––-
1 | 0:00.33 | 4:09.27 | 33 | 18734
2 | 4:09.60 | 3:48.23 | 18735 | 35857
3 | 7:58.08 | 4:38.30 | 35858 | 56737
4 | 12:36.38 | 3:15.07 | 56738 | 71369
5 | 15:51.45 | 4:32.68 | 71370 | 91837
6 | 20:24.38 | 3:52.02 | 91838 | 109239
7 | 24:16.40 | 4:30.38 | 109240 | 129527
8 | 28:47.03 | 4:15.57 | 129528 | 148709
9 | 33:02.60 | 4:17.18 | 148710 | 168002
10 | 37:20.03 | 2:50.30 | 168003 | 180782
11 | 40:10.33 | 2:51.65 | 180783 | 193672

Track 1

Filename C:UsersAdministratorMy DocumentsEAC Rips1. Corey Hart – A Little Love.wav

Pre-gap length 0:00:02.33

Peak level 100.0 %
Track quality 99.9 %
Test CRC E965020E
Copy CRC E965020E
Track not present in AccurateRip database
Copy OK

Track 2

Filename C:UsersAdministratorMy DocumentsEAC Rips2. Corey Hart – Bang! (Starting Over).wav

Peak level 100.0 %
Track quality 100.0 %
Test CRC 548CBBC8
Copy CRC 548CBBC8
Track not present in AccurateRip database
Copy OK

Track 3

Filename C:UsersAdministratorMy DocumentsEAC Rips3. Corey Hart – Rain On Me.wav

Peak level 100.0 %
Track quality 100.0 %
Test CRC C02BB1F3
Copy CRC C02BB1F3
Track not present in AccurateRip database
Copy OK

Track 4

Filename C:UsersAdministratorMy DocumentsEAC Rips4. Corey Hart – Chase The Sun.wav

Peak level 100.0 %
Track quality 100.0 %
Test CRC A276FD14
Copy CRC A276FD14
Track not present in AccurateRip database
Copy OK

Track 5

Filename C:UsersAdministratorMy DocumentsEAC Rips5. Corey Hart – Diamond Cowboy.wav

Peak level 100.0 %
Track quality 100.0 %
Test CRC 5C92D30A
Copy CRC 5C92D30A
Track not present in AccurateRip database
Copy OK

Track 6

Filename C:UsersAdministratorMy DocumentsEAC Rips6. Corey Hart – Icon.wav

Pre-gap length 0:00:01.00

Peak level 100.0 %
Track quality 100.0 %
Test CRC 0C24E5D4
Copy CRC 0C24E5D4
Track not present in AccurateRip database
Copy OK

Track 7

Filename C:UsersAdministratorMy DocumentsEAC Rips7. Corey Hart – Can’t Stand Losin’ You.wav

Pre-gap length 0:00:02.00

Peak level 98.5 %
Track quality 100.0 %
Test CRC FACAB34E
Copy CRC FACAB34E
Track not present in AccurateRip database
Copy OK

Track 8

Filename C:UsersAdministratorMy DocumentsEAC Rips8. Corey Hart – Kisses On The Train.wav

Pre-gap length 0:00:01.73

Peak level 100.0 %
Track quality 100.0 %
Test CRC 47C2E64C
Copy CRC 47C2E64C
Track not present in AccurateRip database
Copy OK

Track 9

Filename C:UsersAdministratorMy DocumentsEAC Rips9. Corey Hart – Art Of Color.wav

Pre-gap length 0:00:02.35

Peak level 100.0 %
Track quality 100.0 %
Test CRC F300F99F
Copy CRC F300F99F
Track not present in AccurateRip database
Copy OK

Track 10

Filename C:UsersAdministratorMy DocumentsEAC Rips10. Corey Hart – Slowburn.wav

Pre-gap length 0:00:01.55

Peak level 80.8 %
Track quality 100.0 %
Test CRC 6CCFC7DE
Copy CRC 6CCFC7DE
Track not present in AccurateRip database
Copy OK

Track 11

Filename C:UsersAdministratorMy DocumentsEAC Rips11. Corey Hart – Ballade For Nien Cheng.wav

Pre-gap length 0:00:00.25

Peak level 78.0 %
Track quality 100.0 %
Test CRC 5B81EDA1
Copy CRC 5B81EDA1
Track not present in AccurateRip database
Copy OK

None of the tracks are present in the AccurateRip database

No errors occurred

End of status report

Corey Hart - Discography (1983-1998) [8 CD]
1992: Attitude & Virtue
EAC Rip | FLAC: Tracks+Cue+Log | 317 Mb | MP3 CBR 320 kbps | 106 Mb | Scans | Time: 44:46
Sire/Warner Bros. | 7599-26815-2

Attitude & Virtue is the seventh album by Corey Hart, released in 1992. It generated four charted singles.

Interestingly, compositions & singing style are different as compared to "First Offence" or the more famous and most successful,"Boy In The Box" albums. Despite this change, he manages to pull it off magnificiently with hits, "Baby When I Call Your Name", "She’s Everywhere" , "Always", "Poster" & "Without Your Love". This certainly proves his versatility as singer-songwriter who is good at that!

Track Listing

01. Back In The Hand (04:15)
02. Love And Money (04:09)
03. Baby When I Call Your Name (04:05)
04. She’e Everywhere (04:21)
05. I Want (Cool Cool Love) (04:05)
06. Always (04:27)
07. Poster (04:11)
08. 92 Days Of Rain (05:47)
09. Without Your Love (04:53)
10. Sonnets From The Portuguese (04:33)

EAC Log
Exact Audio Copy V0.99 prebeta 4 from 23. January 2008

EAC extraction logfile from 13. May 2009, 13:55

Corey Hart / Attitude & Virtue

Used drive : PLEXTOR DVDR PX-716A Adapter: 2 ID: 0

Read mode : Secure
Utilize accurate stream : Yes
Defeat audio cache : Yes
Make use of C2 pointers : No

Read offset correction : 30
Overread into Lead-In and Lead-Out : No
Fill up missing offset samples with silence : Yes
Delete leading and trailing silent blocks : No
Null samples used in CRC calculations : No
Used interface : Native Win32 interface for Win NT & 2000
Gap handling : Appended to previous track

Used output format : User Defined Encoder
Selected bitrate : 1024 kBit/s
Quality : High
Add ID3 tag : Yes
Command line compressor : C:Program FilesExact Audio CopyFLACFLAC.EXE
Additional command line options : -6 -V -T "ARTIST=%a" -T "TITLE=%t" -T "ALBUM=%g" -T "DATE=%y" -T "TRACKNUMBER=%n" -T "GENRE=%m" -T "COMMENT=%e" %s -o %d

TOC of the extracted CD

Track | Start | Length | Start sector | End sector
––––––––––––––––––––––––––––-
1 | 0:00.00 | 4:14.60 | 0 | 19109
2 | 4:14.60 | 4:09.02 | 19110 | 37786
3 | 8:23.62 | 4:04.70 | 37787 | 56156
4 | 12:28.57 | 4:20.73 | 56157 | 75729
5 | 16:49.55 | 4:04.40 | 75730 | 94069
6 | 20:54.20 | 4:27.07 | 94070 | 114101
7 | 25:21.27 | 4:10.55 | 114102 | 132906
8 | 29:32.07 | 5:46.60 | 132907 | 158916
9 | 35:18.67 | 4:53.18 | 158917 | 180909
10 | 40:12.10 | 4:33.07 | 180910 | 201391

Track 1

Filename C:UsersAdministratorMy DocumentsEAC Rips1. Corey Hart – Back in the Hand.wav

Pre-gap length 0:00:02.00

Peak level 97.2 %
Track quality 100.0 %
Test CRC 226AE397
Copy CRC 226AE397
Track not present in AccurateRip database
Copy OK

Track 2

Filename C:UsersAdministratorMy DocumentsEAC Rips2. Corey Hart – Love and Money.wav

Peak level 97.3 %
Track quality 99.9 %
Test CRC E37700AB
Copy CRC E37700AB
Track not present in AccurateRip database
Copy OK

Track 3

Filename C:UsersAdministratorMy DocumentsEAC Rips3. Corey Hart – Baby When I Call Your Name.wav

Peak level 97.3 %
Track quality 100.0 %
Test CRC BAC08065
Copy CRC BAC08065
Track not present in AccurateRip database
Copy OK

Track 4

Filename C:UsersAdministratorMy DocumentsEAC Rips4. Corey Hart – She’e Everywhere.wav

Pre-gap length 0:00:01.37

Peak level 97.5 %
Track quality 99.9 %
Test CRC F4F2BADA
Copy CRC F4F2BADA
Track not present in AccurateRip database
Copy OK

Track 5

Filename C:UsersAdministratorMy DocumentsEAC Rips5. Corey Hart – I Want (Cool Cool Love).wav

Pre-gap length 0:00:00.25

Peak level 97.3 %
Track quality 100.0 %
Test CRC 92EA1A75
Copy CRC 92EA1A75
Track not present in AccurateRip database
Copy OK

Track 6

Filename C:UsersAdministratorMy DocumentsEAC Rips6. Corey Hart – Always.wav

Pre-gap length 0:00:00.73

Peak level 97.3 %
Track quality 100.0 %
Test CRC A4AB0F52
Copy CRC A4AB0F52
Track not present in AccurateRip database
Copy OK

Track 7

Filename C:UsersAdministratorMy DocumentsEAC Rips7. Corey Hart – Poster.wav

Pre-gap length 0:00:00.37

Peak level 97.9 %
Track quality 99.9 %
Test CRC 31652E8F
Copy CRC 31652E8F
Track not present in AccurateRip database
Copy OK

Track 8

Filename C:UsersAdministratorMy DocumentsEAC Rips8. Corey Hart – 92 Days of Rain.wav

Pre-gap length 0:00:01.62

Peak level 98.1 %
Track quality 100.0 %
Test CRC DBC961A7
Copy CRC DBC961A7
Track not present in AccurateRip database
Copy OK

Track 9

Filename C:UsersAdministratorMy DocumentsEAC Rips9. Corey Hart – Without Your Love.wav

Pre-gap length 0:00:00.62

Peak level 97.3 %
Track quality 99.9 %
Test CRC C3763E6A
Copy CRC C3763E6A
Track not present in AccurateRip database
Copy OK

Track 10

Filename C:UsersAdministratorMy DocumentsEAC Rips10. Corey Hart – Sonnets From the Portuguese.wav

Pre-gap length 0:00:02.00

Peak level 97.2 %
Track quality 100.0 %
Test CRC 6D66F118
Copy CRC 6D66F118
Track not present in AccurateRip database
Copy OK

None of the tracks are present in the AccurateRip database

No errors occurred

End of status report

Corey Hart - Discography (1983-1998) [8 CD]
1996: Corey Hart
EAC Rip | FLAC: Tracks+Cue+Log | 337 Mb | MP3 CBR 320 kbps | 112 Mb | Scans | Time: 47:15
Columbia | ck 80240

Corey Hart is the eighth album by Corey Hart, released in 1996. It generated four charted singles.

Corey once again showcases an amazingly skill at writing all the material, never duplicating or boring the listeners.

Track Listing

01. Black Cloud Rain (04:22)
02. Someone (04:37)
03. Love Hurts (04:19)
04. Third Of June (04:36)
05. Simplicity (04:32)
06. Tell Me (03:36)
07. Angel Of My Soul (04:26)
08. Sunflowers (04:59)
09. Kiss The Sky (03:18)
10. On Your Own (04:08)
11. India (04:21)

EAC Log
Exact Audio Copy V0.99 prebeta 4 from 23. January 2008

EAC extraction logfile from 13. May 2009, 13:20

Corey Hart / Corey Hart

Used drive : PLEXTOR DVDR PX-716A Adapter: 2 ID: 0

Read mode : Secure
Utilize accurate stream : Yes
Defeat audio cache : Yes
Make use of C2 pointers : No

Read offset correction : 30
Overread into Lead-In and Lead-Out : No
Fill up missing offset samples with silence : Yes
Delete leading and trailing silent blocks : No
Null samples used in CRC calculations : No
Used interface : Native Win32 interface for Win NT & 2000
Gap handling : Appended to previous track

Used output format : User Defined Encoder
Selected bitrate : 1024 kBit/s
Quality : High
Add ID3 tag : Yes
Command line compressor : C:Program FilesExact Audio CopyFLACFLAC.EXE
Additional command line options : -6 -V -T "ARTIST=%a" -T "TITLE=%t" -T "ALBUM=%g" -T "DATE=%y" -T "TRACKNUMBER=%n" -T "GENRE=%m" -T "COMMENT=%e" %s -o %d

TOC of the extracted CD

Track | Start | Length | Start sector | End sector
––––––––––––––––––––––––––––-
1 | 0:00.00 | 4:22.12 | 0 | 19661
2 | 4:22.12 | 4:37.03 | 19662 | 40439
3 | 8:59.15 | 4:18.62 | 40440 | 59851
4 | 13:18.02 | 4:36.15 | 59852 | 80566
5 | 17:54.17 | 4:32.15 | 80567 | 100981
6 | 22:26.32 | 3:36.13 | 100982 | 117194
7 | 26:02.45 | 4:25.52 | 117195 | 137121
8 | 30:28.22 | 4:58.40 | 137122 | 159511
9 | 35:26.62 | 3:18.10 | 159512 | 174371
10 | 38:44.72 | 4:08.30 | 174372 | 193001
11 | 42:53.27 | 4:20.43 | 193002 | 212544

Track 1

Filename C:UsersAdministratorMy DocumentsEAC Rips1. Corey Hart – Black Cloud Rain.wav

Pre-gap length 0:00:02.00

Peak level 97.7 %
Track quality 100.0 %
Test CRC 532B0588
Copy CRC 532B0588
Accurately ripped (confidence 6) [F2E26C1A]
Copy OK

Track 2

Filename C:UsersAdministratorMy DocumentsEAC Rips2. Corey Hart – Someone.wav

Peak level 97.7 %
Track quality 100.0 %
Test CRC 59F6ECFD
Copy CRC 59F6ECFD
Accurately ripped (confidence 6) [4D36FA3C]
Copy OK

Track 3

Filename C:UsersAdministratorMy DocumentsEAC Rips3. Corey Hart – Love Hurts.wav

Peak level 97.7 %
Track quality 100.0 %
Test CRC ADEE392F
Copy CRC ADEE392F
Accurately ripped (confidence 6) [D5369C2F]
Copy OK

Track 4

Filename C:UsersAdministratorMy DocumentsEAC Rips4. Corey Hart – Third of June.wav

Pre-gap length 0:00:00.50

Peak level 97.7 %
Track quality 100.0 %
Test CRC C42A2E91
Copy CRC C42A2E91
Accurately ripped (confidence 6) [44A45242]
Copy OK

Track 5

Filename C:UsersAdministratorMy DocumentsEAC Rips5. Corey Hart – Simplicity.wav

Pre-gap length 0:00:00.25

Peak level 97.7 %
Track quality 100.0 %
Test CRC EB79BEF5
Copy CRC EB79BEF5
Accurately ripped (confidence 6) [6E86AA94]
Copy OK

Track 6

Filename C:UsersAdministratorMy DocumentsEAC Rips6. Corey Hart – Tell me.wav

Pre-gap length 0:00:01.15

Peak level 96.6 %
Track quality 99.9 %
Test CRC EA7C60B6
Copy CRC EA7C60B6
Accurately ripped (confidence 6) [9EC7EDF6]
Copy OK

Track 7

Filename C:UsersAdministratorMy DocumentsEAC Rips7. Corey Hart – Angel of my Soul.wav

Peak level 99.0 %
Track quality 100.0 %
Test CRC D6C91BD4
Copy CRC D6C91BD4
Accurately ripped (confidence 6) [1BBCA818]
Copy OK

Track 8

Filename C:UsersAdministratorMy DocumentsEAC Rips8. Corey Hart – Sunflowers.wav

Pre-gap length 0:00:00.25

Peak level 97.7 %
Track quality 99.9 %
Test CRC 0007B300
Copy CRC 0007B300
Accurately ripped (confidence 5) [DD4EEE53]
Copy OK

Track 9

Filename C:UsersAdministratorMy DocumentsEAC Rips9. Corey Hart – Kiss the Sky.wav

Pre-gap length 0:00:00.40

Peak level 97.7 %
Track quality 100.0 %
Test CRC FA734805
Copy CRC FA734805
Accurately ripped (confidence 6) [CE646C1D]
Copy OK

Track 10

Filename C:UsersAdministratorMy DocumentsEAC Rips10. Corey Hart – On your Own.wav

Pre-gap length 0:00:00.25

Peak level 97.7 %
Track quality 99.9 %
Test CRC B18F73CE
Copy CRC B18F73CE
Accurately ripped (confidence 6) [DD995631]
Copy OK

Track 11

Filename C:UsersAdministratorMy DocumentsEAC Rips11. Corey Hart – India.wav

Pre-gap length 0:00:00.25

Peak level 88.4 %
Track quality 100.0 %
Test CRC 18E8CD54
Copy CRC 18E8CD54
Accurately ripped (confidence 6) [945FC995]
Copy OK

All tracks accurately ripped

No errors occurred

End of status report

Corey Hart - Discography (1983-1998) [8 CD]
1998: Jade
EAC Rip | FLAC: Tracks+Cue+Log | 337 Mb | MP3 CBR 320 kbps | 115 Mb | Scans | Time: 48:28
Columbia | ck 80387

Jade is the ninth album by Corey Hart, released in 1998. It generated three singles.

The style of Jade is very much typical of Corey Hart’s early albums. A fan of Corey Hart will love this CD, and anyone who isn’t a fan will become one after listening to this CD. True heart and emotion in all the songs and music.

Track Listing

01. Let It Fly (03:57)
02. Without You (02:51)
03. You And I (03:55)
04. Break The Chain (04:30)
05. Là-Bas (04:32)
06. So Visible (Easy To Miss) (04:19)
07. Jade (04:21)
08. Reconcile (04:13)
09. Above The Trees (04:21)
10. Bittersweet (03:47)
11. Believing (03:55)
12. Everytime You Smile (03:47)

EAC Log
Exact Audio Copy V0.99 prebeta 4 from 23. January 2008

EAC extraction logfile from 22. January 2009, 16:19

Corey Hart / Jade

Used drive : PLEXTOR DVDR PX-716A Adapter: 2 ID: 0

Read mode : Secure
Utilize accurate stream : Yes
Defeat audio cache : Yes
Make use of C2 pointers : No

Read offset correction : 30
Overread into Lead-In and Lead-Out : No
Fill up missing offset samples with silence : Yes
Delete leading and trailing silent blocks : No
Null samples used in CRC calculations : No
Used interface : Native Win32 interface for Win NT & 2000
Gap handling : Appended to previous track

Used output format : User Defined Encoder
Selected bitrate : 1024 kBit/s
Quality : High
Add ID3 tag : Yes
Command line compressor : C:Program FilesExact Audio CopyFLACFLAC.EXE
Additional command line options : -6 -V -T "ARTIST=%a" -T "TITLE=%t" -T "ALBUM=%g" -T "DATE=%y" -T "TRACKNUMBER=%n" -T "GENRE=%m" -T "COMMENT=%e" %s -o %d

TOC of the extracted CD

Track | Start | Length | Start sector | End sector
––––––––––––––––––––––––––––-
1 | 0:00.00 | 3:56.72 | 0 | 17771
2 | 3:56.72 | 2:50.45 | 17772 | 30566
3 | 6:47.42 | 3:54.35 | 30567 | 48151
4 | 10:42.02 | 4:29.63 | 48152 | 68389
5 | 15:11.65 | 4:32.10 | 68390 | 88799
6 | 19:44.00 | 4:19.25 | 88800 | 108249
7 | 24:03.25 | 4:21.07 | 108250 | 127831
8 | 28:24.32 | 4:12.43 | 127832 | 146774
9 | 32:37.00 | 4:21.12 | 146775 | 166361
10 | 36:58.12 | 3:46.50 | 166362 | 183361
11 | 40:44.62 | 3:55.03 | 183362 | 200989
12 | 44:39.65 | 3:46.72 | 200990 | 218011

Track 1

Filename C:UsersAdministratorMy DocumentsEAC Rips1. Corey Hart – Let It Fly.wav

Pre-gap length 0:00:02.00

Peak level 98.8 %
Track quality 100.0 %
Test CRC E213945A
Copy CRC E213945A
Track not present in AccurateRip database
Copy OK

Track 2

Filename C:UsersAdministratorMy DocumentsEAC Rips2. Corey Hart – Without You.wav

Pre-gap length 0:00:00.37

Peak level 98.8 %
Track quality 100.0 %
Test CRC 46E612EE
Copy CRC 46E612EE
Track not present in AccurateRip database
Copy OK

Track 3

Filename C:UsersAdministratorMy DocumentsEAC Rips3. Corey Hart – You and I.wav

Peak level 100.0 %
Track quality 100.0 %
Test CRC 85A20FE4
Copy CRC 85A20FE4
Track not present in AccurateRip database
Copy OK

Track 4

Filename C:UsersAdministratorMy DocumentsEAC Rips4. Corey Hart – Break the Chain.wav

Peak level 100.0 %
Track quality 100.0 %
Test CRC 14791B3A
Copy CRC 14791B3A
Track not present in AccurateRip database
Copy OK

Track 5

Filename C:UsersAdministratorMy DocumentsEAC Rips5. Corey Hart – Lа-bas.wav

Peak level 97.7 %
Track quality 100.0 %
Test CRC D29B0E69
Copy CRC D29B0E69
Track not present in AccurateRip database
Copy OK

Track 6

Filename C:UsersAdministratorMy DocumentsEAC Rips6. Corey Hart – So Visible (Easy to Miss).wav

Peak level 98.8 %
Track quality 99.9 %
Test CRC 83B81D3B
Copy CRC 83B81D3B
Track not present in AccurateRip database
Copy OK

Track 7

Filename C:UsersAdministratorMy DocumentsEAC Rips7. Corey Hart – Jade.wav

Pre-gap length 0:00:00.53

Peak level 98.8 %
Track quality 100.0 %
Test CRC AD4A355E
Copy CRC AD4A355E
Track not present in AccurateRip database
Copy OK

Track 8

Filename C:UsersAdministratorMy DocumentsEAC Rips8. Corey Hart – Reconcile.wav

Peak level 98.8 %
Track quality 100.0 %
Test CRC 5096277B
Copy CRC 5096277B
Track not present in AccurateRip database
Copy OK

Track 9

Filename C:UsersAdministratorMy DocumentsEAC Rips9. Corey Hart – Above the Trees.wav

Pre-gap length 0:00:00.40

Peak level 100.0 %
Track quality 100.0 %
Test CRC 08522F23
Copy CRC 08522F23
Track not present in AccurateRip database
Copy OK

Track 10

Filename C:UsersAdministratorMy DocumentsEAC Rips10. Corey Hart – Bittersweet.wav

Peak level 98.8 %
Track quality 100.0 %
Test CRC 3A4BD95E
Copy CRC 3A4BD95E
Track not present in AccurateRip database
Copy OK

Track 11

Filename C:UsersAdministratorMy DocumentsEAC Rips11. Corey Hart – Believing.wav

Pre-gap length 0:00:00.52

Peak level 96.6 %
Track quality 100.0 %
Test CRC 314C5B06
Copy CRC 314C5B06
Track not present in AccurateRip database
Copy OK

Track 12

Filename C:UsersAdministratorMy DocumentsEAC Rips12. Corey Hart – Everytime You Smile.wav

Peak level 98.8 %
Track quality 100.0 %
Test CRC 3C1C9595
Copy CRC 3C1C9595
Track not present in AccurateRip database
Copy OK

None of the tracks are present in the AccurateRip database

No errors occurred

End of status report

Many thanks to the original uploader: Kitlope

Corey Hart – Discography (1983-1998) [8 CD] Download, Warez, DDL, Free, Full Album, Torrent, Legal.

Download


  • Recent Posts

  • Recent Tags