Coleman Hawkins In Europe (2009)

Download
Coleman Hawkins In Europe (2009)

Coleman Hawkins In Europe (2009)
DVD rip | MP4: Main@L4 (720 x 488, 1250 Kbps) | Audio: MP3 (128 Kbps: VBR) | 109 min + 26 min | English | 1.33 gb
Genre: concert, jazz

Coleman Hawkins In Europe is a 2009 DVD of black & white film footage with Coleman Hawkins. It features live performances shot in London, Paris and Brussels between 1962 and 1966’s, plus a 26 minute film of Coleman Hawkins/Roy Eldridge Sextet as a DVD extra.

Coleman Hawkins In Europe (2009)
MediaInfo (LOG)
General
Complete name : E:FLACAAA 2017VidsColeman Hawkins In Europe (2009)Coleman Hawkins In Europe (2009).mp4
Format : MPEG-4
Format profile : Base Media / Version 2
Codec ID : mp42
File size : 1.05 GiB
Duration : 1h 48mn
Overall bit rate mode : Variable
Overall bit rate : 1 382 Kbps
Encoded date : UTC 2017-06-25 15:15:40
Tagged date : UTC 2017-06-25 18:04:41
Writing application : HandBrake 0.9.9 2013052900

Video
ID : 1
Format : AVC
Format/Info : Advanced Video Codec
Format profile : Main@L4
Format settings, CABAC : Yes
Format settings, ReFrames : 4 frames
Codec ID : avc1
Codec ID/Info : Advanced Video Coding
Duration : 1h 48mn
Bit rate : 1 258 Kbps
Width : 720 pixels
Height : 488 pixels
Display aspect ratio : 4:3
Original display aspect ratio : 4:3
Frame rate mode : Constant
Frame rate : 29.970 fps
Color space : YUV
Chroma subsampling : 4:2:0
Bit depth : 8 bits
Scan type : Progressive
Bits/(Pixel*Frame) : 0.119
Stream size : 980 MiB (91%)
Writing library : x264 core 130 r2273 b3065e6
Encoding settings : cabac=1 / ref=1 / deblock=1:0:0 / analyse=0x1:0x111 / me=hex / subme=2 / psy=1 / psy_rd=1.00:0.00 / mixed_ref=0 / me_range=16 / chroma_me=1 / trellis=0 / 8x8dct=0 / cqm=0 / deadzone=21,11 / fast_pskip=1 / chroma_qp_offset=0 / threads=1 / lookahead_threads=1 / sliced_threads=0 / nr=0 / decimate=1 / interlaced=0 / bluray_compat=0 / constrained_intra=0 / bframes=3 / b_pyramid=2 / b_adapt=1 / b_bias=0 / direct=1 / weightb=1 / open_gop=0 / weightp=1 / keyint=300 / keyint_min=30 / scenecut=40 / intra_refresh=0 / rc_lookahead=10 / rc=crf / mbtree=1 / crf=20.0 / qcomp=0.60 / qpmin=0 / qpmax=69 / qpstep=4 / vbv_maxrate=20000 / vbv_bufsize=25000 / crf_max=0.0 / nal_hrd=none / ip_ratio=1.40 / aq=1:1.00
Encoded date : UTC 2017-06-25 15:15:40
Tagged date : UTC 2017-06-25 18:04:41
Color range : Limited
Color primaries : BT.601 NTSC
Transfer characteristics : BT.709
Matrix coefficients : BT.601

Audio
ID : 2
Format : AAC
Format/Info : Advanced Audio Codec
Format profile : LC
Codec ID : 40
Duration : 1h 48mn
Bit rate mode : Variable
Bit rate : 119 Kbps
Maximum bit rate : 150 Kbps
Channel(s) : 2 channels
Channel positions : Front: L R
Sampling rate : 48.0 KHz
Compression mode : Lossy
Stream size : 92.8 MiB (9%)
Title : Stereo
Encoded date : UTC 2017-06-25 15:15:40
Tagged date : UTC 2017-06-25 18:04:41

Menu
ID : 3
Codec ID : text
Duration : 1h 48mn
Encoded date : UTC 2017-06-25 15:15:40
Tagged date : UTC 2017-06-25 18:04:41
00:00:00.000 : Chapter 1
00:10:00.232 : Chapter 2
00:15:43.075 : Chapter 3
00:20:12.311 : Chapter 4
00:25:17.949 : Chapter 5
00:36:15.439 : Chapter 6
00:44:00.337 : Chapter 7
00:51:22.946 : Chapter 8
00:55:11.241 : Chapter 9
00:58:07.717 : Chapter 10
01:13:05.614 : Chapter 11
01:17:39.054 : Chapter 12
01:22:49.965 : Chapter 13
01:32:25.506 : Chapter 14
01:39:49.483 : Chapter 15
Bit rate mode : VBR

Coleman Hawkins In Europe (2009) Download, Warez, DDL, Free, Full Album, Torrent, Legal.

Download