Cliff Martinez – Wicker Park (OST) (2004)

Download
Cliff Martinez - Wicker Park (OST) (2004)

Cliff Martinez – Wicker Park (OST) (2004)
EAC Rip | FLAC (tracks+.cue+log) – 104 MB | MP3 CBR 320 kbps (LAME 3.93) – 67 MB | Covers – 27 MB
Genre: Electronic, Ambient | RAR 3% Rec. | Label: Lakeshore Records (LKS 33806)

Minimalist composer, electronic whiz kid, and frequent Steven Soderbergh collaborator Cliff Martinez wraps an Eno-esque blanket of chilly sunlight and subdued dread around the Josh Hartnett thriller Wicker Park. Martinez’s hypnotic work on Traffic and Solaris complemented Soderbergh’s intimate narrative style, so it’s no real surprise that he attacks the suspense genre with the same amount of elegant subtlety. Plot boilers like Wicker Park are at their most effective when the lights are low and the only sound is the mounting of a boot at the foot of the stairs, and Martinez’s ability to lay back and let the blood pressure rise is apparent throughout, utilizing loops and whistles – as well as strings – like Thomas Newman scoring an episode of The X-Files. As a stand-alone listening experience, Wicker Park suffers from a lack of memorable motifs and cues, but makes for a delicious and melancholy soundtrack for a rainy afternoon in the attic.

Tracklist:
01. Following Daniel
02. The Compact
03. What Size Shoe?
04. Sorry
05. Finally, You Two Meet
06. Will I See You?
07. Hello, Who’s This
08. My Dad’s Famous Potatoes
09. I Am Not What I Am
10. I Didn’t Go To China
11. Have A Good Trip

Total time: 28:38

EAC log
Exact Audio Copy V1.0 beta 3 from 29. August 2011

EAC extraction logfile from 10. January 2012, 13:15

Cliff Martinez / Wicker Park

Used drive : PLEXTOR DVDR PX-L890SA Adapter: 1 ID: 1

Read mode : Secure
Utilize accurate stream : Yes
Defeat audio cache : Yes
Make use of C2 pointers : No

Read offset correction : 6
Overread into Lead-In and Lead-Out : No
Fill up missing offset samples with silence : Yes
Delete leading and trailing silent blocks : No
Null samples used in CRC calculations : Yes
Used interface : Installed external ASPI interface
Gap handling : Appended to previous track

Used output format : User Defined Encoder
Selected bitrate : 1024 kBit/s
Quality : High
Add ID3 tag : No
Command line compressor : C:Program FilesExact Audio CopyFlacflac.exe
Additional command line options : -V -8 -T "Genre=%genre%" -T "Artist=%artist%" -T "Title=%title%" -T "Album=%albumtitle%" -T "Date=%year%" -T "Tracknumber=%tracknr%" -T "Comment=%comment%" %source%

TOC of the extracted CD

Track | Start | Length | Start sector | End sector
––––––––––––––––––––––––––––-
1 | 0:00.00 | 2:38.05 | 0 | 11854
2 | 2:38.05 | 1:59.35 | 11855 | 20814
3 | 4:37.40 | 2:04.25 | 20815 | 30139
4 | 6:41.65 | 3:36.62 | 30140 | 46401
5 | 10:18.52 | 1:58.00 | 46402 | 55251
6 | 12:16.52 | 1:56.70 | 55252 | 64021
7 | 14:13.47 | 6:02.38 | 64022 | 91209
8 | 20:16.10 | 2:47.65 | 91210 | 103799
9 | 23:04.00 | 1:30.72 | 103800 | 110621
10 | 24:34.72 | 1:54.43 | 110622 | 119214
11 | 26:29.40 | 2:12.50 | 119215 | 129164

Track 1

Filename F:torrentWicker Park_Cliff Martinezscore1 Following Daniel.wav

Pre-gap length 0:00:02.00

Peak level 77.9 %
Extraction speed 4.6 X
Track quality 100.0 %
Test CRC 58DEAA34
Copy CRC 58DEAA34
Accurately ripped (confidence 1) [53E287BD] (AR v1)
Copy OK

Track 2

Filename F:torrentWicker Park_Cliff Martinezscore2 The Compact.wav

Peak level 65.5 %
Extraction speed 4.6 X
Track quality 100.0 %
Test CRC 5EA10644
Copy CRC 5EA10644
Accurately ripped (confidence 1) [C9DD2B87] (AR v1)
Copy OK

Track 3

Filename F:torrentWicker Park_Cliff Martinezscore3 What Size Shoe.wav

Peak level 83.8 %
Extraction speed 4.9 X
Track quality 100.0 %
Test CRC 809FA6A7
Copy CRC 809FA6A7
Accurately ripped (confidence 1) [DC6E4C20] (AR v1)
Copy OK

Track 4

Filename F:torrentWicker Park_Cliff Martinezscore4 Sorry.wav

Peak level 50.4 %
Extraction speed 5.8 X
Track quality 100.0 %
Test CRC D02E99AA
Copy CRC D02E99AA
Accurately ripped (confidence 1) [4FD75023] (AR v1)
Copy OK

Track 5

Filename F:torrentWicker Park_Cliff Martinezscore5 Finally, You Two Meet.wav

Pre-gap length 0:00:00.70

Peak level 83.5 %
Extraction speed 5.5 X
Track quality 100.0 %
Test CRC A497CFEB
Copy CRC A497CFEB
Accurately ripped (confidence 1) [4979AC01] (AR v1)
Copy OK

Track 6

Filename F:torrentWicker Park_Cliff Martinezscore6 Will I See You.wav

Pre-gap length 0:00:01.72

Peak level 43.5 %
Extraction speed 5.7 X
Track quality 100.0 %
Test CRC 528C5347
Copy CRC 528C5347
Accurately ripped (confidence 1) [60C55BDC] (AR v1)
Copy OK

Track 7

Filename F:torrentWicker Park_Cliff Martinezscore7 Hello, Who’s This.wav

Pre-gap length 0:00:00.60

Peak level 69.3 %
Extraction speed 6.7 X
Track quality 99.9 %
Test CRC 9B97D604
Copy CRC 9B97D604
Accurately ripped (confidence 1) [0D945B24] (AR v1)
Copy OK

Track 8

Filename F:torrentWicker Park_Cliff Martinezscore8 My Dad’s Famous Potatoes.wav

Peak level 95.5 %
Extraction speed 6.9 X
Track quality 100.0 %
Test CRC 5F3CFED9
Copy CRC 5F3CFED9
Accurately ripped (confidence 1) [7B006C84] (AR v1)
Copy OK

Track 9

Filename F:torrentWicker Park_Cliff Martinezscore9 I Am Not What I Am.wav

Peak level 97.4 %
Extraction speed 4.7 X
Track quality 99.8 %
Test CRC 78057A0B
Copy CRC 78057A0B
Accurately ripped (confidence 1) [B3F38A53] (AR v1)
Copy OK

Track 10

Filename F:torrentWicker Park_Cliff Martinezscore10 I Didn’t Go To China.wav

Peak level 38.1 %
Extraction speed 6.7 X
Track quality 100.0 %
Test CRC 05A4C7F9
Copy CRC 05A4C7F9
Accurately ripped (confidence 1) [A5BCC29A] (AR v1)
Copy OK

Track 11

Filename F:torrentWicker Park_Cliff Martinezscore11 Have A Good Trip.wav

Peak level 61.1 %
Extraction speed 7.1 X
Track quality 100.0 %
Test CRC 78886E30
Copy CRC 78886E30
Accurately ripped (confidence 1) [BA33DF35] (AR v1)
Copy OK

All tracks accurately ripped

No errors occurred

End of status report

==== Log checksum 6C785A644B17DD5749281B22E76E7C0DEEDA895DACC284B3599BBCEF203E6B18 ====

CUETools log
[CUETools log; Date: 03.07.2017 22:43:56; Version: 2.1.4]
[CTDB TOCID: nQhd3Me3ksX0WylX_145pgZ_DdE-] found.
Track | CTDB Status
1 | (2/2) Accurately ripped
2 | (2/2) Accurately ripped
3 | (2/2) Accurately ripped
4 | (2/2) Accurately ripped
5 | (2/2) Accurately ripped
6 | (2/2) Accurately ripped
7 | (2/2) Accurately ripped
8 | (2/2) Accurately ripped
9 | (2/2) Accurately ripped
10 | (2/2) Accurately ripped
11 | (2/2) Accurately ripped
[AccurateRip ID: 000bf0a2-0068852d-8e06ba0b] found.
Track [ CRC | V2 ] Status
01 [53e287bd|d1ae7c5c] (0+4/4) Accurately ripped
02 [c9dd2b87|ab967621] (0+4/4) Accurately ripped
03 [dc6e4c20|3eb59802] (0+4/4) Accurately ripped
04 [4fd75023|9a88d590] (0+4/4) Accurately ripped
05 [4979ac01|eeb77806] (0+4/4) Accurately ripped
06 [60c55bdc|3bb906ec] (0+4/4) Accurately ripped
07 [0d945b24|95e620fb] (0+4/4) Accurately ripped
08 [7b006c84|ff383cc8] (0+4/4) Accurately ripped
09 [b3f38a53|cf908552] (0+4/4) Accurately ripped
10 [a5bcc29a|cbcf54c8] (0+4/4) Accurately ripped
11 [ba33df35|8d694698] (0+4/4) Accurately ripped

Track Peak [ CRC32 ] [W/O NULL] [ LOG ]
– 97,4 [B8DBC9BC] [E435C79B]
01 77,9 [58DEAA34] [9F56012D] CRC32
02 65,5 [5EA10644] [AF069860] CRC32
03 83,8 [809FA6A7] [19E80652] CRC32
04 50,4 [D02E99AA] [7D19C582] CRC32
05 83,5 [A497CFEB] [FEA623F3] CRC32
06 43,5 [528C5347] [AA6B1C47] CRC32
07 69,3 [9B97D604] [1E5BBEA1] CRC32
08 95,5 [5F3CFED9] [5D55607F] CRC32
09 97,4 [78057A0B] [1D9D936C] CRC32
10 38,1 [05A4C7F9] [75F40821] CRC32
11 61,1 [78886E30] [B82A0D8D] CRC32

Thanks to Sarant

See also:
Cliff Martinez – Solaris (OST) (2002) [Reissue 2010]
Cliff Martinez – Contagion (OST) (2011)
Cliff Martinez – The Knick (OST) (2014)

Welcome to My Blog!

Cliff Martinez – Wicker Park (OST) (2004) Download, Warez, DDL, Free, Full Album, Torrent, Legal.

Download