Clepsydra – Fears (1997)

Download
Clepsydra - Fears (1997)

Clepsydra – Fears (1997)
Rock | 1cd | EAC Rip | Flac + Cue + Log | covers
CCD 4110 / SPV 085-28542 CD | rel: 1997 | 535Mb

This record is a true masterpiece of neo progressive rock! The music is quite comparable to neo progressive bands like Arena, Pendragon, Jadis, IQ and Violet District. The lush, magic & ear candy melodic keyboards will easily make you stargaze. The floating keyboards are quite rich, colorful and atmospheric, however a bit less flamboyant & bombastic than on the Alone album. The VERY melodic electric guitar solos are very good, and it is all the time played in the high notes, a bit like the expressive neo prog bands use to play in their songs, such like Jadis, IQ and Violet District. When the electric guitar is rhythmic, it is not distorted too much, so that it just brings a slightly bold & pleasant rhythmic contribution. There are also many discrete distortion- free electric guitar notes a la Jadis, Pendragon & Marillion, which is a VERY strong point of the album, even more omnipresent than on the Alone album. The male lead singer has a very insistent, emotional and highly pitched voice, with a strong foreign accent. The bass and the drums do a very good job. If we compare this record with their following Alone album, Clepsydra are more sophisticated and progressive here, and they still have their very pleasant emotional approach. All the tracks are at least excellent. Again, Clepsydra here should seduce women with their simple, catchy, accessible and emotional approach. ~progarchives

Track listing
01. Soaked (9:03)
02. The Missing Spark (9:02)
03. Into My Cartoon (4:08)
04. The Age Of Glass (5:53)
05. Fearless (3:57)
06. Daisies In The Sunshine (2:31)
07. The Cloister (5:46)
08. The Nineteenth Hole (8:42)
09. Sweet Smelling Wood (2:46)
10. Fear (10:55)

Personnel
– Aulisio Maggini / vocals
– Marco Cerulli / guitars and sax
– Philip Hubert / keyboards
– Andy Thommen / bass
– Pietro Duca / drums and percussions

eac log:
Exact Audio Copy V1.0 beta 2 from 29. April 2011

EAC extraction logfile from 19. August 2011, 0:34

Clepsydra / Fears

Used drive : TEAC CD-W516EB Adapter: 0 ID: 0

Read mode : Secure
Utilize accurate stream : Yes
Defeat audio cache : Yes
Make use of C2 pointers : No

Read offset correction : 685
Overread into Lead-In and Lead-Out : No
Fill up missing offset samples with silence : Yes
Delete leading and trailing silent blocks : No
Null samples used in CRC calculations : Yes
Used interface : Native Win32 interface for Win NT & 2000

Used output format : User Defined Encoder
Selected bitrate : 1024 kBit/s
Quality : High
Add ID3 tag : Yes
Command line compressor : C:Program Files (x86)FLACflac.exe
Additional command line options : -6 -V -T "ARTIST=%artist%" -T "TITLE=%title%" -T "ALBUM=%albumtitle%" -T "DATE=%year%" -T "TRACKNUMBER=%tracknr%" -T "GENRE=%genre%" -T "COMMENT=%comment%" %source% -o %dest%

TOC of the extracted CD

Track | Start | Length | Start sector | End sector
––––––––––––––––––––––––––––-
1 | 0:00.00 | 9:03.02 | 0 | 40726
2 | 9:03.02 | 9:03.08 | 40727 | 81459
3 | 18:06.10 | 4:08.72 | 81460 | 100131
4 | 22:15.07 | 5:53.48 | 100132 | 126654
5 | 28:08.55 | 3:59.17 | 126655 | 144596
6 | 32:07.72 | 2:31.38 | 144597 | 155959
7 | 34:39.35 | 5:46.17 | 155960 | 181926
8 | 40:25.52 | 8:45.10 | 181927 | 221311
9 | 49:10.62 | 2:46.35 | 221312 | 233796
10 | 51:57.22 | 10:55.65 | 233797 | 282986

Range status and errors

Selected range

Filename Y:EACwurenshClepsydraClepsydra – Fears.wav

Peak level 99.8 %
Extraction speed 7.3 X
Range quality 99.9 %
Test CRC 2A2728C8
Copy CRC 2A2728C8
Copy OK

No errors occurred

AccurateRip summary

Track 1 accurately ripped (confidence 7) [E9EB20AE] (AR v1)
Track 2 accurately ripped (confidence 7) [71FE5B38] (AR v1)
Track 3 accurately ripped (confidence 7) [4382CA4D] (AR v1)
Track 4 accurately ripped (confidence 7) [73A701C7] (AR v1)
Track 5 accurately ripped (confidence 7) [A40C9B28] (AR v1)
Track 6 accurately ripped (confidence 7) [2FC9E4F5] (AR v1)
Track 7 accurately ripped (confidence 7) [34B27D23] (AR v1)
Track 8 accurately ripped (confidence 7) [10688E01] (AR v1)
Track 9 accurately ripped (confidence 7) [54C5254A] (AR v1)
Track 10 accurately ripped (confidence 7) [97EC9B08] (AR v1)

All tracks accurately ripped

End of status report

==== Log checksum C8BD44389677932D837B85E659AA520BD0196F4421418D75D2CF37488C81AC66 ====

cuetools report:
[CUETools log; Date: 2017. 02. 06. 22:51:12; Version: 2.1.6]
[CTDB TOCID: Oos5Zi.PpArrG6JdX_ZiNq.jrUU-] found.
Track | CTDB Status
1 | (17/17) Accurately ripped
2 | (17/17) Accurately ripped
3 | (17/17) Accurately ripped
4 | (17/17) Accurately ripped
5 | (17/17) Accurately ripped
6 | (17/17) Accurately ripped
7 | (17/17) Accurately ripped
8 | (17/17) Accurately ripped
9 | (17/17) Accurately ripped
10 | (17/17) Accurately ripped
[AccurateRip ID: 0017f312-00ba6a9f-8e0ebd0a] found.
Track [ CRC | V2 ] Status
01 [e9eb20ae|b2dde77f] (11+11/22) Accurately ripped
02 [71fe5b38|ae3c0e8c] (11+11/22) Accurately ripped
03 [4382ca4d|0eac889d] (11+11/22) Accurately ripped
04 [73a701c7|b912f12d] (11+11/22) Accurately ripped
05 [a40c9b28|8a88127f] (11+11/22) Accurately ripped
06 [2fc9e4f5|cd47900d] (11+11/22) Accurately ripped
07 [34b27d23|32e0222a] (11+11/22) Accurately ripped
08 [10688e01|9977d18f] (11+11/22) Accurately ripped
09 [54c5254a|4046f8a7] (11+11/22) Accurately ripped
10 [97ec9b08|3c426c8b] (11+11/22) Accurately ripped

Track Peak [ CRC32 ] [W/O NULL] [ LOG ]
– 99,8 [2A2728C8] [599F7EC2] CRC32
01 99,4 [3FE54126] [F833F644]
02 99,4 [9F0E08A7] [4B750081]
03 98,8 [6FF86C98] [C796F5E9]
04 99,4 [18436AD8] [AA368108]
05 92,3 [4DDA3270] [E4B8C2C2]
06 99,8 [16A20016] [CC9F73B8]
07 99,4 [6BF2350A] [65ED458C]
08 99,4 [6F03ED71] [2F39D3F8]
09 99,8 [7C7C8AC7] [85E58B9B]
10 99,4 [D0E9612B] [24D71D18]

Thx to wurensh

Clepsydra – Fears (1997) Download, Warez, DDL, Free, Full Album, Torrent, Legal.

Download