Clearlight – Impressionist Symphony (2014) | ViralVideoPk

Daily Dose of Free Downloads

Clearlight – Impressionist Symphony (2014)

Download

Clearlight - Impressionist Symphony (2014)

Clearlight – Impressionist Symphony (2014)
EAC Rip | FLAC: Tracks+Cue+Log | 401 Mb | MP3 CBR 320 kbps | 179 Mb | Scans | 96 Mb | Time: 01:04:39
Gonzo Multimedia | HST214CD
Symphonic Progressive Rock, Space Rock, Fusion, New Age

Clearlight’s “Impressionist Symphony” focuses on the artistic style of impressionism, painting and music as well with a Ravel, Satie and Debussy influence merged with Cyrille Verdeaux’s progressive music experience and linked with the French impressionist school of painting.

The release celebrates the 40th anniversary of “Clearlight Symphony,” an early classic Virgin Record release, which featured Cyrille’s compositional skills and virtuoso keyboard playing, with performances by Gong family members Tim Blake, Steve Hillage, and Didier Malherbe, and others.

“Impressionist Symphony” continues Cyrille’s return to the world of progressive music, which was retriggered with the release of 2013’s Spirits Burning & Clearlight “Healthy Music In Large Doses,” which featured Cyrille and many members of the space and prog rock communities, and now continues through this release and others on Gonzo Multimedia.

Wikipedia | Progarchives | Gonzo Multimedia

Track Listing

01. Renoir En Couleur (08:03)
02. Time Is Monet (09:44)
03. Pissarro King (06:28)
04. Degas De La Marine (07:53)
05. Van Gogh 3rd Ear (06:39)
06. Gaughin Dans L’Autre (11:07)
07. Lautrec Too Loose (05:22)
08. Monet Time (Duet) (09:23)

Produced by Don Marino Falcone & Olivier Briand

The Band

• Cyrille Verdeaux : piano, synthesizers
• Didier Malherbe : wind instruments
• Craig Fry : violin
• Vincent Thomas Penny : guitars
• Paul Sears : drums, percussion
• Linda Cushma : bass
• Chris Kovacks, Remy Tran : synthesizers
• Steve Hillage : guitars

*****
• Tim Blake : xils synth, theremin

EAC Log
Exact Audio Copy V1.0 beta 3 from 29. August 2011

EAC extraction logfile from 9. May 2014, 10:32

Clearlight / Impressionist Symphony

Used drive : ASUS DRW-1608P3S Adapter: 1 ID: 1

Read mode : Secure
Utilize accurate stream : Yes
Defeat audio cache : Yes
Make use of C2 pointers : No

Read offset correction : 48
Overread into Lead-In and Lead-Out : No
Fill up missing offset samples with silence : Yes
Delete leading and trailing silent blocks : No
Null samples used in CRC calculations : Yes
Used interface : Installed external ASPI interface
Gap handling : Appended to previous track

Used output format : User Defined Encoder
Selected bitrate : 128 kBit/s
Quality : High
Add ID3 tag : No
Command line compressor : C:Program FilesExact Audio CopyFlacflac.exe
Additional command line options : -V -8 -T "Date=%year%" -T "Genre=%genre%" %source%

TOC of the extracted CD

Track | Start | Length | Start sector | End sector
––––––––––––––––––––––––––––-
1 | 0:00.00 | 8:02.71 | 0 | 36220
2 | 8:02.71 | 9:43.47 | 36221 | 79992
3 | 17:46.43 | 6:27.32 | 79993 | 109049
4 | 24:14.00 | 7:53.01 | 109050 | 144525
5 | 32:07.01 | 6:39.20 | 144526 | 174470
6 | 38:46.21 | 11:07.21 | 174471 | 224516
7 | 49:53.42 | 5:21.48 | 224517 | 248639
8 | 55:15.15 | 9:22.62 | 248640 | 290851

Track 1

Filename E:bzp01Clearlight – Impressionist Symphony (2014) [FLAC] {GONZOHST214CD}1 – Renoir En Couleur.wav

Pre-gap length 0:00:02.00

Peak level 95.1 %
Extraction speed 4.8 X
Track quality 100.0 %
Test CRC F697B47C
Copy CRC F697B47C
Accurately ripped (confidence 3) [FC5B156B] (AR v2)
Copy OK

Track 2

Filename E:bzp01Clearlight – Impressionist Symphony (2014) [FLAC] {GONZOHST214CD}2 – Time Is Monet.wav

Peak level 90.2 %
Extraction speed 5.6 X
Track quality 99.9 %
Test CRC FE6D362B
Copy CRC FE6D362B
Accurately ripped (confidence 3) [E3A960A2] (AR v2)
Copy OK

Track 3

Filename E:bzp01Clearlight – Impressionist Symphony (2014) [FLAC] {GONZOHST214CD}3 – Pissarro King.wav

Peak level 94.7 %
Extraction speed 6.0 X
Track quality 99.9 %
Test CRC E5B3FF9C
Copy CRC E5B3FF9C
Accurately ripped (confidence 3) [FE52A129] (AR v2)
Copy OK

Track 4

Filename E:bzp01Clearlight – Impressionist Symphony (2014) [FLAC] {GONZOHST214CD}4 – Degas De La Marine.wav

Peak level 92.7 %
Extraction speed 7.1 X
Track quality 100.0 %
Test CRC 54624CE9
Copy CRC 54624CE9
Accurately ripped (confidence 3) [D01EA827] (AR v2)
Copy OK

Track 5

Filename E:bzp01Clearlight – Impressionist Symphony (2014) [FLAC] {GONZOHST214CD}5 – Van Gogh 3rd Ear.wav

Peak level 99.6 %
Extraction speed 7.5 X
Track quality 100.0 %
Test CRC 7E1B9D72
Copy CRC 7E1B9D72
Accurately ripped (confidence 3) [2A845144] (AR v2)
Copy OK

Track 6

Filename E:bzp01Clearlight – Impressionist Symphony (2014) [FLAC] {GONZOHST214CD}6 – Gaughin Dans L’Autre.wav

Peak level 91.6 %
Extraction speed 7.9 X
Track quality 99.9 %
Test CRC 96A1B0D3
Copy CRC 96A1B0D3
Accurately ripped (confidence 3) [0729EE38] (AR v2)
Copy OK

Track 7

Filename E:bzp01Clearlight – Impressionist Symphony (2014) [FLAC] {GONZOHST214CD}7 – Lautrec Too Loose.wav

Peak level 98.0 %
Extraction speed 8.3 X
Track quality 100.0 %
Test CRC 029026A8
Copy CRC 029026A8
Accurately ripped (confidence 3) [7AEB104F] (AR v2)
Copy OK

Track 8

Filename E:bzp01Clearlight – Impressionist Symphony (2014) [FLAC] {GONZOHST214CD}8 – Monet Time – Duet.wav

Peak level 97.6 %
Extraction speed 9.0 X
Track quality 100.0 %
Test CRC 3A8111AD
Copy CRC 3A8111AD
Accurately ripped (confidence 3) [BB085187] (AR v2)
Copy OK

All tracks accurately ripped

No errors occurred

End of status report

==== Log checksum 7315A0ACDA4DDC67D18E563504640EA178D6696F0EAE45F1F96DE63C9B90A681 ====

Many thanks to the original uploader: yalinc

SEE also:
Clearlight 1975 Forever Blowing Bubbles [Remastered 2001]
Clearlight 1976 Les Contes Du Singe Fou [Reissue 2001]
Clearlight 1978 Visions [Reissue 2000]
Clearlight 2003 Infinite Symphony [Digipak]

Khan 1972 Space Shanty [Japanese SHM-CD, 2008]

Pierre Moerlen’s Gong 1979 Downwind [Remastered 2010]
Pierre Moerlen’s Gong 1979 Time Is The Key [Remastered 2010]
Pierre Moerlen’s Gong 1980 Live [Reissue 1991]
Pierre Moerlen’s Gong 1981 Leave It Open [Remastered 2011]
Pierre Moerlen’s Gong 1986 Breakthrough
Pierre Moerlen’s Gong 1988 Second Wind
Pierre Moerlen’s Gong 2001 Full Circle – Live 1988

The Prog Collective 2012 The Prog Collective
The Prog Collective 2013 Epilogue [Digipak]

Uriel 1969 Arzachel [Collectors Edition, 2007]

Clearlight – Impressionist Symphony (2014) Download, Warez, DDL, Free, Full Album, Torrent, Legal.

Download


  • Recent Posts

  • Recent Tags