CJ Ramone – Reconquista (2012) [CD+DVD '2013] RESTORED

Download
CJ Ramone - Reconquista (2012) [CD+DVD '2013] RESTORED

CJ Ramone - Reconquista (2012) [CD+DVD '2013] RESTORED

CJ Ramone – Reconquista (2012) [CD+DVD ‘2013]
EAC | FLAC+CUE+LOG or MP3 CBR 320 | 35:39 min | 262 or 83 MB
DVD5 | NTSC / VIDEO_TS | Dolby Digital 2.0 | 21 min | ENG Hardsubs | 1013 MB

Christopher Joseph Ward, aka CJ Ramone, who replaced original bassist Dee Dee Ramone in the Ramones in 1989 and played with the seminal Punk Rock band until 1996, returns. After works with Los Gusanos and Bad Chopper, he had entering studio in late May/early June 2012 and done the first record under his own name. The results that named Reconquista is more like a tribute to the Ramones, and enlists some excellent players to assist with the album. Those songs got published really quickly after studio, digitally on June 2012, and year after coming on vinyl and CD+DVD release that making happy all of the Ramones fans.

Tracklist:

01. What We Gonna Do Now?
02. Three Angels
03. You’re The Only One
04. Nobody’s Sweetheart
05. Shut Up
06. King Cobra
07. Now I Know…
08. Ghost Ring
09. Waitin’ For My Man
10. Goin’ Home
11. Low On Ammo
12. Aloha Oe

all songs written by CJ Ramone except
"9" by Lou Reed, and "12" by Queen Liliuokalani

EAC Logfile
Exact Audio Copy V1.0 beta 1 from 15. November 2010

EAC extraction logfile from 3. November 2013, 0:04

CJ Ramone / Reconquista

Used drive : PIONEER DVD-RW DVR-219L Adapter: 5 ID: 0

Read mode : Secure
Utilize accurate stream : Yes
Defeat audio cache : Yes
Make use of C2 pointers : No

Read offset correction : 6
Overread into Lead-In and Lead-Out : No
Fill up missing offset samples with silence : Yes
Delete leading and trailing silent blocks : No
Null samples used in CRC calculations : Yes
Used interface : Installed external ASPI interface

Used output format : Internal WAV Routines
Sample format : 44.100 Hz; 16 Bit; Stereo

TOC of the extracted CD

Track | Start | Length | Start sector | End sector
––––––––––––––––––––––––––––-
1 | 0:00.00 | 2:41.25 | 0 | 12099
2 | 2:41.25 | 2:57.63 | 12100 | 25437
3 | 5:39.13 | 3:00.33 | 25438 | 38970
4 | 8:39.46 | 2:47.55 | 38971 | 51550
5 | 11:27.26 | 2:42.24 | 51551 | 63724
6 | 14:09.50 | 3:43.00 | 63725 | 80449
7 | 17:52.50 | 3:28.30 | 80450 | 96079
8 | 21:21.05 | 2:25.25 | 96080 | 106979
9 | 23:46.30 | 2:18.28 | 106980 | 117357
10 | 26:04.58 | 2:16.74 | 117358 | 127631
11 | 28:21.57 | 4:19.62 | 127632 | 147118
12 | 32:41.44 | 2:57.31 | 147119 | 160424

Range status and errors

Selected range

Filename C:_AvaxHome.ru__RehabillyCJ Ramone – Reconquista (2012) [CD+DVD]CJ Ramone – Reconquista.wav

Peak level 100.0 %
Extraction speed 0.2 X
Range quality 100.0 %
Test CRC 7763AE30
Copy CRC 7763AE30
Copy OK

No errors occurred

AccurateRip summary

Track 1 not present in database
Track 2 not present in database
Track 3 not present in database
Track 4 not present in database
Track 5 not present in database
Track 6 not present in database
Track 7 not present in database
Track 8 not present in database
Track 9 not present in database
Track 10 not present in database
Track 11 not present in database
Track 12 not present in database

None of the tracks are present in the AccurateRip database

End of status report

==== Log checksum A6B95A2919C47D549B3CAE7615D450B982B3C9D3BD91A39EC32F19966D94AE5E ====

DVD:

01. King Cobra: The Making Of Album

DVD info
Title: KING_COBRA
Size: 0.99 Gb ( 1 034 760 KBytes ) – DVD-5
Enabled regions: 1, 2, 3, 4, 5, 6, 7, 8

VTS_01 :
Play Length: 00:21:35
Video: NTSC 16:9 (720×480) VBR, Auto Pan&Scan
Audio:
English (Dolby AC3, 2 ch)

Menu Video:
NTSC 4:3 (720×480) VBR
Menu Subtitles:
Not specified
Menu English Language Unit :
Root Menu

Produced by Jim Monroe and Steve Soto. Mastered by Paul Miner
Recorded & Mixed by Jim Monro at The Racket Room, Santa Ana, CA.
King Kobra DVD: Filmed on location at The Racket Room, Santa Ana, CA.

• CJ Ramone – lead vocals, guitar, bass
• Steve Soto – guitar, backing vocals
• Jose Medeles – drums, percussion

additional musicians:
– Jay Bentley (of Bad Religion) – bass on "1"
– Marcus Holland (of Street Dogs) – lead guitar on "1", backing vocals
– Jonny "2 Bags" Wickersham (of Social Distortion) – lead guitar on "2, 12"
– Matt Katz (of Blondie) – keyboards on "3, 7, 9"
– Frank Agnew (of The Adolescents) – lead guitar on "4, 7, 8)
– Dennis Casey (of Flogging Molly) – lead guitar on "6, 9"
– Billy Zoom (of X) – lead guitar on "10"
– Dan Root (of The Adolescents) – lead guitar on "11"

Original Release Date: June 29, 2012
Released on Vinyl & CD: June 2013
Number Of Discs: 2 [CD+DVD]
Label: Selfreleased/Pirates Press
Catalog No.: PIR091

all materials has published without any permission and distributed in evaluation mode only. Always remember:
If you like it – buy it / go to the band’s shows, purchase their merch, etc… Support the independent label/Artist!

* EAC Image, embedded cuesheet & more, foobar2000 ready, etc.
(all CUEs, LOGs and other technical info includes in the internal "CD_Support" archive)

CJ Ramone – Reconquista (2012) [CD+DVD '2013] RESTORED Download, Warez, DDL, Free, Full Album, Torrent, Legal.

Download