Christmas – Christmas (1970) [Reissue 2001] (Repost) | ViralVideoPk

Daily Dose of Free Downloads

Christmas – Christmas (1970) [Reissue 2001] (Repost)

Download

Christmas - Christmas (1970) [Reissue 2001] (Repost)

Christmas – Christmas (1970) [Reissue 2001]
EAC Rip | FLAC (image+.cue+log) – 256 MB | MP3 CBR 320 kbps (LAME 3.93) – 100 MB | Covers (6 MB) included
Genre: Progressive/Psychedelic Rock | RAR 3% Rec. | Label: Pacemaker Entertainment (PACE 043)

Formed in Oshawa, Ontario by guitarist Bob Bryden amid the ruins of psych-rock outfit Reign Ghost, whose two Allied Records releases fetch hefty sums in collectors’ circles, Christmas initially recorded this music as record industry bait for one of those budget throwaway top-hits collections. As Bryden recalls, "(This was) originally to be a ’12 Top Hits’ album done anonymously, but we jammed and they released the jams and scrapped the ‘cover version’ idea."
Allegedly issued without the band’s knowledge, Christmas has a laconic, post-acid feel to it, with the spectre of the Grateful Dead – especially the stoner noodling on their classic ‘Dark Star’ – everywhere on the record. Side one is the more disciplined of the two sides, giving itself to more standard song structures of varying quality ranging from somnambulant to soothing. Bryden’s crisp guitar work starts to emerge on the final track, ‘Oasis’, a carefree instrumental that sets the stage for side two and its sprawling side-long jam, the almost interminable and ridiculously named ‘Jungle Fabulous’.

Tracklist:
01. Just Suppose
02. Your Humble Suitor
03. Sorry I Bore You Victoria
04. Oasis
05. Jungle Fabulous

Total time: 39:04

EAC log
Exact Audio Copy V0.99 prebeta 3 from 28. July 2007

EAC extraction logfile from 23. December 2007, 13:26

Christmas / Christmas

Used drive : LITE-ON DVDRW LH-20A1P Adapter: 0 ID: 2

Read mode : Secure
Utilize accurate stream : Yes
Defeat audio cache : Yes
Make use of C2 pointers : No

Read offset correction : 6
Overread into Lead-In and Lead-Out : No
Fill up missing offset samples with silence : Yes
Delete leading and trailing silent blocks : No
Null samples used in CRC calculations : Yes
Used interface : Installed external ASPI interface

Used output format : Internal WAV Routines
Sample format : 44.100 Hz; 16 Bit; Stereo

TOC of the extracted CD

Track | Start | Length | Start sector | End sector
––––––––––––––––––––––––––––-
1 | 0:00.00 | 4:31.22 | 0 | 20346
2 | 4:31.22 | 4:20.53 | 20347 | 39899
3 | 8:52.00 | 3:00.16 | 39900 | 53415
4 | 11:52.16 | 6:12.45 | 53416 | 81360
5 | 18:04.61 | 20:59.14 | 81361 | 175799

Range status and errors

Selected range

Filename D:flogger77Christmas – Christmas.wav

Peak level 98.9 %
Range quality 100.0 %
Copy CRC 9095D4B5
Copy OK

No errors occurred

AccurateRip summary

Track 1 not present in database
Track 2 not present in database
Track 3 not present in database
Track 4 not present in database
Track 5 not present in database

None of the tracks are present in the AccurateRip database

End of status report

CUETools log
[CUETools log; Date: 19.12.2016 20:28:43; Version: 2.1.4]
[CTDB TOCID: hhCLNJdqVV9qqcV5vsFLF7J6X6M-] found.
Track | CTDB Status
1 | (3/3) Accurately ripped
2 | (3/3) Accurately ripped
3 | (3/3) Accurately ripped
4 | (3/3) Accurately ripped
5 | (3/3) Accurately ripped
[AccurateRip ID: 0005a888-001c0290-35092805] found.
Track [ CRC | V2 ] Status
01 [b9d1fd95|f2e4dcbb] (1+0/2) Accurately ripped
02 [51cc48fb|2236ca5e] (1+0/2) Accurately ripped
03 [2d5cef98|42fe9c99] (1+0/2) Accurately ripped
04 [f9945f0b|1fb78230] (1+0/2) Accurately ripped
05 [981916f5|cd4da575] (1+0/2) Accurately ripped

Track Peak [ CRC32 ] [W/O NULL] [ LOG ]
– 98,9 [9095D4B5] [0D796EAD] CRC32
01 98,8 [9F64B8D7] [1C0E797C]
02 98,8 [5F4CA9AB] [6B885711]
03 98,8 [D954DD3B] [42DA2DFF]
04 98,9 [B46D60D3] [C909596B]
05 98,9 [A67ED569] [FAF82367]

Thanks to flogger77

Welcome to My Blog!

Christmas – Christmas (1970) [Reissue 2001] (Repost) Download, Warez, DDL, Free, Full Album, Torrent, Legal.

Download


  • Recent Posts

  • Recent Tags