Chris Robinson Brotherhood – Barefoot in the Head (2017)

Download
Chris Robinson Brotherhood - Barefoot in the Head (2017)

Chris Robinson Brotherhood – Barefoot in the Head
EAC Rip | FLAC (tracks)+cue, log, m3u, front cover | 45:16 min | 295 MB
Label: Silver Arrow – 0 20286 22406 | Tracks: 10 | Rls.date: 2017
Southern Rock, Blues Rock

Barefoot In The Head (Silver Arrow Records) marks a third collection of new material from the band in the past two years and freedom suits the Chris Robinson Brotherhood well!

‘Barefoot In The Head’ finds the band pushing boundaries and breaking new ground with more joy and wonder than ever before. The album showcases the continued growth of Robinson’s songwriting partnership with his bandmates (guitarist Neal Casal, drummer Tony Leone, keyboardist Adam MacDougall, and bassist Jeff Hill), while revelling in the kind of playful adventurousness that can only come from five artists tuned in to the same sonic wavelength.

The album opens with the Americana funk of "Behold The Seer," which sounds like something of a mission statement for the CRB as Robinson sings, "If you want to keep your engine humming / Keep your eyes wide ahead and don’t look back." On the dreamy "She Shares My Blanket," Robinson crafts cinematic scenes from a winter love affair in the mountains, while elegant pedal steel added by special guest Barry Sless on "Blonde Light Of Day" casts a warm, romantic haze and "Blue Star Woman" sounds like T-Rex dressed in overalls living on a West Coast commune. Throughout the album, Robinson and the band deftly intertwine country, blues and psychedelia, even channeling freewheeling 60s’ folk on "Hark The Herald Hermit Speaks," a breakneck stream of consciousness that blurs the lines between fantasy and reality. On the English psych inspired "Glow," which Robinson calls "one of the most special things I’ve ever done in the studio," The CRB are joined by the celebrated sarodist Alam Khan (son of the legendary Ali Akbar Khan).

TRACKLIST
01. Behold the Seer 04:22
02. She Shares My Blanket 04:24
03. Hark, The Herald Hermit Speaks 04:47
04. Blonde Light of Morning 04:03
05. Dog Eat Sun 03:06
06. Blue Star Woman 04:59
07. High Is Not the Top 03:49
08. If You Had a Heart to Break 05:51
09. Glow 04:50
10. Good to Know 04:53

EAC Log
Exact Audio Copy V1.0 beta 4 from 7. December 2014

EAC extraction logfile from 26. July 2017, 13:48

Chris Robinson Brotherhood / Barefoot in the Head

Used drive : PIONEER DVD-RW DVR-116D Adapter: 1 ID: 0

Read mode : Secure
Utilize accurate stream : Yes
Defeat audio cache : Yes
Make use of C2 pointers : No

Read offset correction : 96
Overread into Lead-In and Lead-Out : No
Fill up missing offset samples with silence : Yes
Delete leading and trailing silent blocks : No
Null samples used in CRC calculations : Yes
Used interface : Native Win32 interface for Win NT & 2000
Gap handling : Appended to previous track

Used output format : User Defined Encoder
Selected bitrate : 1024 kBit/s
Quality : High
Add ID3 tag : No
Command line compressor : C:Program Files (x86)Exact Audio CopyFlacflac.exe
Additional command line options : -8 -V -T "ARTIST=%artist%" -T "TITLE=%title%" -T "ALBUM=%albumtitle%" -T "DATE=%year%" -T "TRACKNUMBER=%tracknr%" -T "GENRE=%genre%" -T "PERFORMER=%albuminterpret%" -T "COMPOSER=%composer%" %haslyrics%–tag-from-file=LYRICS="%lyricsfile%"%haslyrics% -T "ALBUMARTIST=%albumartist%" -T "DISCNUMBER=%cdnumber%" -T "TOTALDISCS=%totalcds%" -T "TOTALTRACKS=%numtracks%" -T "COMMENT=%comment%" %source% -o %dest%

TOC of the extracted CD

Track | Start | Length | Start sector | End sector
––––––––––––––––––––––––––––-
1 | 0:00.00 | 4:23.08 | 0 | 19732
2 | 4:23.08 | 4:25.23 | 19733 | 39630
3 | 8:48.31 | 4:48.43 | 39631 | 61273
4 | 13:36.74 | 4:04.48 | 61274 | 79621
5 | 17:41.47 | 3:08.33 | 79622 | 93754
6 | 20:50.05 | 5:01.13 | 93755 | 116342
7 | 25:51.18 | 3:50.60 | 116343 | 133652
8 | 29:42.03 | 5:53.02 | 133653 | 160129
9 | 35:35.05 | 4:51.45 | 160130 | 181999
10 | 40:26.50 | 4:53.09 | 182000 | 203983

Track 1

Filename C:new flac ripsChris Robinson Brotherhood – 2017 – Barefoot in the Head1 Behold the Seer.wav

Pre-gap length 0:00:02.00

Peak level 98.8 %
Extraction speed 4.3 X
Track quality 100.0 %
Test CRC 976540C3
Copy CRC 976540C3
Track not present in AccurateRip database
Copy OK

Track 2

Filename C:new flac ripsChris Robinson Brotherhood – 2017 – Barefoot in the Head2 She Shares My Blanket.wav

Pre-gap length 0:00:00.65

Peak level 98.8 %
Extraction speed 4.8 X
Track quality 100.0 %
Test CRC 05496417
Copy CRC 05496417
Track not present in AccurateRip database
Copy OK

Track 3

Filename C:new flac ripsChris Robinson Brotherhood – 2017 – Barefoot in the Head3 Hark The Herald Hermit Speaks.wav

Pre-gap length 0:00:00.57

Peak level 98.8 %
Extraction speed 5.3 X
Track quality 100.0 %
Test CRC EFFF8D67
Copy CRC EFFF8D67
Track not present in AccurateRip database
Copy OK

Track 4

Filename C:new flac ripsChris Robinson Brotherhood – 2017 – Barefoot in the Head4 Blonde Light of Morning.wav

Pre-gap length 0:00:01.00

Peak level 98.8 %
Extraction speed 5.6 X
Track quality 100.0 %
Test CRC 01480C96
Copy CRC 01480C96
Track not present in AccurateRip database
Copy OK

Track 5

Filename C:new flac ripsChris Robinson Brotherhood – 2017 – Barefoot in the Head5 Dog Eat Sun.wav

Pre-gap length 0:00:01.35

Peak level 98.8 %
Extraction speed 5.6 X
Track quality 100.0 %
Test CRC F8AF37C4
Copy CRC F8AF37C4
Track not present in AccurateRip database
Copy OK

Track 6

Filename C:new flac ripsChris Robinson Brotherhood – 2017 – Barefoot in the Head6 Blue Star Woman.wav

Pre-gap length 0:00:01.57

Peak level 98.8 %
Extraction speed 6.3 X
Track quality 100.0 %
Test CRC BD7342DE
Copy CRC BD7342DE
Track not present in AccurateRip database
Copy OK

Track 7

Filename C:new flac ripsChris Robinson Brotherhood – 2017 – Barefoot in the Head7 High Is Not the Top.wav

Pre-gap length 0:00:01.57

Peak level 98.8 %
Extraction speed 6.4 X
Track quality 100.0 %
Test CRC F72B0CBE
Copy CRC F72B0CBE
Track not present in AccurateRip database
Copy OK

Track 8

Filename C:new flac ripsChris Robinson Brotherhood – 2017 – Barefoot in the Head8 If You Had a Heart to Break.wav

Pre-gap length 0:00:01.59

Peak level 98.8 %
Extraction speed 6.8 X
Track quality 100.0 %
Test CRC 1881BA01
Copy CRC 1881BA01
Track not present in AccurateRip database
Copy OK

Track 9

Filename C:new flac ripsChris Robinson Brotherhood – 2017 – Barefoot in the Head9 Glow.wav

Pre-gap length 0:00:01.56

Peak level 98.8 %
Extraction speed 5.5 X
Track quality 100.0 %
Test CRC 2D8E9F5B
Copy CRC 2D8E9F5B
Track not present in AccurateRip database
Copy OK

Track 10

Filename C:new flac ripsChris Robinson Brotherhood – 2017 – Barefoot in the Head10 Good to Know.wav

Pre-gap length 0:00:01.18

Peak level 98.8 %
Extraction speed 6.5 X
Track quality 99.9 %
Test CRC 6027B0C9
Copy CRC 6027B0C9
Track not present in AccurateRip database
Copy OK

None of the tracks are present in the AccurateRip database

No errors occurred

End of status report

–– CUETools DB Plugin V2.1.4

[CTDB TOCID: WdJZ9zyjiOnVzFjyN.apVIEGsoo-] found
Submit result: WdJZ9zyjiOnVzFjyN.apVIEGsoo- has been confirmed
Track | CTDB Status
1 | (4/4) Accurately ripped
2 | (4/4) Accurately ripped
3 | (4/4) Accurately ripped
4 | (4/4) Accurately ripped
5 | (4/4) Accurately ripped
6 | (4/4) Accurately ripped
7 | (4/4) Accurately ripped
8 | (4/4) Accurately ripped
9 | (4/4) Accurately ripped
10 | (4/4) Accurately ripped

==== Log checksum FEAC2B1D1E845140FBB95E0849069A4745B60000FDC2B9AA19A1E1A9F25EE4C3 ====

Thanks to the Original customer.

Chris Robinson Brotherhood – Barefoot in the Head (2017) Download, Warez, DDL, Free, Full Album, Torrent, Legal.

Download