Chris 'Bad News' Barnes – Hokum Blues (2017)

Download
Chris 'Bad News' Barnes - Hokum Blues (2017)

Chris ‘Bad News’ Barnes – Hokum Blues
EAC Rip | FLAC (tracks)+cue, log, m3u, front cover | 51:03 min | 314 MB
Label: Vizztone – VTCB17 | Tracks: 14 | Rls.date: 2017
Blues

Chris ‘Bad News’ Barnes presents his uniquely topical and slightly twisted take on Hokum Blues, the raunchy and humorous song style popularized in the steamy Prohibition era of the 1930s by the likes of Tampa Red and Big Bill Broonzy. Barnes is a well versed musician and satirist whose credits include countless opening slots at the legendary NYC blues club, Tramps, where he would improvise original blues tunes based on audience suggestions, and writing and performing on Saturday Night Live, 30 Rock, Curb Your Enthusiasm, Seinfeld, and the Carol Burnett Show.

Barnes enlisted an all-star cast of his notable friends, all musicians sensitive to a comedian’s aesthetics: Jimmy Vivino (Conan OBrien show) on guitar, Will Lee (David Letterman’s CBS Orchestra) on bass, Shawn Pelton (Saturday Night Live) on drums, Bette Sussman (Bette Midler’s musical director) on piano, and Steve Guyger (Jimmy Rogers Blues Band) on harmonica.

TRACKLIST
1. It Hurts Me Too (3:26)
2. Let Me Play With Your Poodle (2:34)
3. I’m Gonna Get High (3:14)
4. It’s Tight Like That (3:49)
5. I Had To Give Up Gym (2:35)
6. Things About Coming My Way (4:17)
7. You Can’t Get Enough Of That Stuff (5:02)
8. Hokum Blues (3:21)
9. Somebody Been Using That Thing (5:29)
10. Keep Your Mind On It (2:51)
11. Let Me Pat That Thing (3:00)
12. Caught Him Doing It (3:45)
13. Gin Mill Blues (3:26)
14. Christmas And New Year’s Blues (3:32)

EAC Log
Exact Audio Copy V1.3 from 2. September 2016

EAC extraction logfile from 28. July 2017, 14:02

Chris "Bad News" Barnes / Hokum Blues

Used drive : TSSTcorpCD/DVDW SH-S182M Adapter: 1 ID: 0

Read mode : Secure
Utilize accurate stream : Yes
Defeat audio cache : Yes
Make use of C2 pointers : No

Read offset correction : 6
Overread into Lead-In and Lead-Out : No
Fill up missing offset samples with silence : Yes
Delete leading and trailing silent blocks : No
Null samples used in CRC calculations : Yes
Used interface : Native Win32 interface for Win NT & 2000
Gap handling : Appended to previous track

Used output format : User Defined Encoder
Selected bitrate : 1024 kBit/s
Quality : High
Add ID3 tag : No
Command line compressor : C:Program FilesExact Audio CopyFLACFLAC.EXE
Additional command line options : -6 -V -T "ARTIST=%artist%" -T "TITLE=%title%" -T "ALBUM=%albumtitle%" -T "DATE=%year%" -T "TRACKNUMBER=%tracknr%" -T "GENRE=%genre%" -T "COMMENT=%comment%" -T "BAND=%albuminterpret%" -T "ALBUMARTIST=%albuminterpret%" -T "COMPOSER=%composer%" %haslyrics%–tag-from-file=LYRICS="%lyricsfile%"%haslyrics% -T "DISCNUMBER=%cdnumber%" -T "TOTALDISCS=%totalcds%" -T "TOTALTRACKS=%numtracks%" %hascover%–picture="%coverfile%"%hascover% %source% -o %dest%

TOC of the extracted CD

Track | Start | Length | Start sector | End sector
––––––––––––––––––––––––––––-
1 | 0:00.00 | 3:28.64 | 0 | 15663
2 | 3:28.64 | 2:36.01 | 15664 | 27364
3 | 6:04.65 | 3:16.44 | 27365 | 42108
4 | 9:21.34 | 3:52.50 | 42109 | 59558
5 | 13:14.09 | 2:39.00 | 59559 | 71483
6 | 15:53.09 | 4:21.49 | 71484 | 91107
7 | 20:14.58 | 5:04.33 | 91108 | 113940
8 | 25:19.16 | 3:25.66 | 113941 | 129381
9 | 28:45.07 | 5:31.45 | 129382 | 154251
10 | 34:16.52 | 2:55.01 | 154252 | 167377
11 | 37:11.53 | 3:04.18 | 167378 | 181195
12 | 40:15.71 | 3:49.70 | 181196 | 198440
13 | 44:05.66 | 3:29.23 | 198441 | 214138
14 | 47:35.14 | 3:34.54 | 214139 | 230242

Track 1

Filename F:Nueva carpeta1 It Hurts Me Too.wav

Pre-gap length 0:00:02.00

Peak level 100.0 %
Extraction speed 3.5 X
Track quality 100.0 %
Test CRC 93B389CA
Copy CRC 93B389CA
Track not present in AccurateRip database
Copy OK

Track 2

Filename F:Nueva carpeta2 Let Me Play With Your Poodle.wav

Peak level 100.0 %
Extraction speed 3.1 X
Track quality 99.9 %
Test CRC 5DC7CB8F
Copy CRC 5DC7CB8F
Track not present in AccurateRip database
Copy OK

Track 3

Filename F:Nueva carpeta3 I’m Gonna Get High.wav

Peak level 100.0 %
Extraction speed 4.0 X
Track quality 100.0 %
Test CRC AC17AD99
Copy CRC AC17AD99
Track not present in AccurateRip database
Copy OK

Track 4

Filename F:Nueva carpeta4 It’s Tight Like That.wav

Peak level 100.0 %
Extraction speed 4.3 X
Track quality 100.0 %
Test CRC E8CF53BB
Copy CRC E8CF53BB
Track not present in AccurateRip database
Copy OK

Track 5

Filename F:Nueva carpeta5 I Had To Give Up Gym.wav

Peak level 92.1 %
Extraction speed 3.7 X
Track quality 99.9 %
Test CRC 28021E1C
Copy CRC 28021E1C
Track not present in AccurateRip database
Copy OK

Track 6

Filename F:Nueva carpeta6 Things About Coming My Way.wav

Peak level 98.0 %
Extraction speed 4.7 X
Track quality 100.0 %
Test CRC FBA35C27
Copy CRC FBA35C27
Track not present in AccurateRip database
Copy OK

Track 7

Filename F:Nueva carpeta7 You Cant Get Enough Of That Stuff.wav

Peak level 100.0 %
Extraction speed 4.6 X
Track quality 99.9 %
Test CRC 4F046E58
Copy CRC 4F046E58
Track not present in AccurateRip database
Copy OK

Track 8

Filename F:Nueva carpeta8 Hokum Blues.wav

Peak level 83.7 %
Extraction speed 5.0 X
Track quality 100.0 %
Test CRC 64222DC8
Copy CRC 64222DC8
Track not present in AccurateRip database
Copy OK

Track 9

Filename F:Nueva carpeta9 Somebody Been Using That Thing.wav

Peak level 100.0 %
Extraction speed 5.2 X
Track quality 100.0 %
Test CRC 3BB91413
Copy CRC 3BB91413
Track not present in AccurateRip database
Copy OK

Track 10

Filename F:Nueva carpeta10 Keep Your Mind On It.wav

Peak level 99.5 %
Extraction speed 5.1 X
Track quality 100.0 %
Test CRC 2B80D712
Copy CRC 2B80D712
Track not present in AccurateRip database
Copy OK

Track 11

Filename F:Nueva carpeta11 Let Me Pat That Thing.wav

Peak level 100.0 %
Extraction speed 4.7 X
Track quality 99.9 %
Test CRC B7F98816
Copy CRC B7F98816
Track not present in AccurateRip database
Copy OK

Track 12

Filename F:Nueva carpeta12 Caught Him Doing It.wav

Peak level 100.0 %
Extraction speed 5.6 X
Track quality 100.0 %
Test CRC 215C5986
Copy CRC 215C5986
Track not present in AccurateRip database
Copy OK

Track 13

Filename F:Nueva carpeta13 Gin Mill Blues.wav

Peak level 95.5 %
Extraction speed 5.6 X
Track quality 100.0 %
Test CRC C6FD288D
Copy CRC C6FD288D
Track not present in AccurateRip database
Copy OK

Track 14

Filename F:Nueva carpeta14 Christmas And New Year’s Blues.wav

Peak level 94.3 %
Extraction speed 5.8 X
Track quality 100.0 %
Test CRC ABC619C0
Copy CRC ABC619C0
Track not present in AccurateRip database
Copy OK

None of the tracks are present in the AccurateRip database

No errors occurred

End of status report

–– CUETools DB Plugin V2.1.6

[CTDB TOCID: i_V574UNRFP0XQvNrYEfLayk4so-] disk not present in database
Submit result: i_V574UNRFP0XQvNrYEfLayk4so- has been uploaded

==== Log checksum DA5E5704FD78059E7DE6F0CB9748AA6DF358CC0CAD036F46BBEA886559741DE8 ====

Thanks to the Original customer.

Chris 'Bad News' Barnes – Hokum Blues (2017) Download, Warez, DDL, Free, Full Album, Torrent, Legal.

Download