Cherry Poppin' Daddies – The Boop-A-Doo! (2016) | ViralVideoPk

Daily Dose of Free Downloads

Cherry Poppin' Daddies – The Boop-A-Doo! (2016)

Download

Cherry Poppin' Daddies - The Boop-A-Doo! (2016)

Cherry Poppin’ Daddies – The Boop-A-Doo! (2016)
EAC Rip | FLAC (Img) + Cue + Log ~ 289 Mb | Scans (PNG, 400 dpi) ~ 63 Mb | RAR 5% Recovery
Jazz, Swing | Space Age Bachelor Pad Records #CPD-4237

The Boop-A-Doo is the eighth studio album and tenth album overall by American ska-swing band the Cherry Poppin’ Daddies, released on January 22, 2016 by Space Age Bachelor Pad Records. The second in a planned trilogy of cover albums intended to showcase the Daddies’ swing and jazz influences following the 2014 Rat Pack tribute Please Return the Evening, The Boop-A-Doo is a collection of jazz and swing standards from the 1920s and 1930s.

"The Boop-A-Doo is the 2nd in our trilogy of recordings that we are putting together to showcase our swing influences when we started CPD. The Boop-A-Doo documents: The Roaring 20’s, the Weimar Republic in Germany, The Great Depression, Pre-Code Hollywood film, Art Deco and Cotton Club Hot Jazz. We approached it as if we were recording directly onto a wax cylinder- we kept all the sounds hard and sharp. It was a very different than the lush “tape compression and reverb” approach we went for in volume 1 of this series –“Please Return the Evening- CPD Salutes the Music of the Rat Pack.” We used vintage era drum kits and the banjo for our chordal instrument. For the most part, I chose songs that combine lyrical and musical sophistication with edgy subject matter. I like this “Modernist” era because much of the art was done with a wink. That feels like artistic home for me. It was from this period that we appropriated long instrumental sections designed to highlight the action of the song- like for instance in our song Drunk Daddy. The Boop-A-Doo is great instrumental music and vocal music at the same time… and of course great songs arranged in a way that’s fun to dance to."

Official Website | Wiki | Discogs | All Music

***************

Cherry Poppin' Daddies - The Boop-A-Doo! (2016)

Track List:

01. That Lindy Hop [2:24]
02. The Joint Is Jumpin’ [2:37]
03. 42nd Street [3:21]
04. Kickin’ The Gong Around [3:32]
05. Let’s Misbehave [2:54]
06. Puttin’ On The Ritz [3:40]
07. We’re In The Money [2:17]
08. Night And Day [3:37]
09. Top Hat, White Tie And Tails [3:24]
10. Trickeration [2:58]
11. Lullaby Of Broadway [3:15]
12. Steppin’ Out With My Baby [2:26]
13. Temptation [1:59]
14. Doin’ The New Lowdown [3:17]

EAC Log
Exact Audio Copy V1.0 beta 3 from 29. August 2011

EAC extraction logfile from 24. December 2016, 19:40

Cherry Poppin’ Daddies / The Boop-A-Doo

Used drive : PIONEER BD-RW BDR-TD03 Adapter: 0 ID: 1

Read mode : Secure
Utilize accurate stream : Yes
Defeat audio cache : Yes
Make use of C2 pointers : No

Read offset correction : 667
Overread into Lead-In and Lead-Out : No
Fill up missing offset samples with silence : Yes
Delete leading and trailing silent blocks : No
Null samples used in CRC calculations : Yes
Used interface : Native Win32 interface for Win NT & 2000

Used output format : User Defined Encoder
Selected bitrate : 768 kBit/s
Quality : High
Add ID3 tag : No
Command line compressor : C:Program Files (x86)Exact Audio CopyFLACFLAC.EXE
Additional command line options : -6 -V -T "ARTIST=%artist%" -T "TITLE=%title%" -T "ALBUM=%albumtitle%" -T "DATE=%year%" -T "TRACKNUMBER=%tracknr%" -T "GENRE=%genre%" -T "COMMENT=%comment%" -T "BAND=%albuminterpret%" -T "ALBUMARTIST=%albuminterpret%" -T "COMPOSER=%composer%" %haslyrics%–tag-from-file=LYRICS="%lyricsfile%"%haslyrics% -T "DISCNUMBER=%cdnumber%" -T "TOTALDISCS=%totalcds%" -T "TOTALTRACKS=%numtracks%" %hascover%–picture="%coverfile%"%hascover% %source% -o %dest%

TOC of the extracted CD

Track | Start | Length | Start sector | End sector
––––––––––––––––––––––––––––-
1 | 0:00.00 | 2:23.71 | 0 | 10795
2 | 2:23.71 | 2:36.41 | 10796 | 22536
3 | 5:00.37 | 3:20.47 | 22537 | 37583
4 | 8:21.09 | 3:32.05 | 37584 | 53488
5 | 11:53.14 | 2:54.01 | 53489 | 66539
6 | 14:47.15 | 3:39.42 | 66540 | 83006
7 | 18:26.57 | 2:16.64 | 83007 | 93270
8 | 20:43.46 | 3:36.42 | 93271 | 109512
9 | 24:20.13 | 3:23.43 | 109513 | 124780
10 | 27:43.56 | 2:57.60 | 124781 | 138115
11 | 30:41.41 | 3:15.09 | 138116 | 152749
12 | 33:56.50 | 2:25.60 | 152750 | 163684
13 | 36:22.35 | 1:59.22 | 163685 | 172631
14 | 38:21.57 | 3:17.22 | 172632 | 187428

Range status and errors

Selected range

Filename C:UsersDerisDesktop…cherry15Cherry Poppin’ Daddies – The Boop-A-Doo.wav

Peak level 96.0 %
Extraction speed 4.5 X
Range quality 100.0 %
Test CRC BF18D815
Copy CRC BF18D815
Copy OK

No errors occurred

AccurateRip summary

Track 1 accurately ripped (confidence 1) [01424AB9] (AR v2)
Track 2 accurately ripped (confidence 1) [1FFA3E53] (AR v2)
Track 3 accurately ripped (confidence 1) [65B3ACD8] (AR v2)
Track 4 accurately ripped (confidence 1) [4EBD6842] (AR v2)
Track 5 accurately ripped (confidence 1) [B29E0D30] (AR v2)
Track 6 accurately ripped (confidence 1) [55722511] (AR v2)
Track 7 accurately ripped (confidence 1) [40A445D6] (AR v2)
Track 8 accurately ripped (confidence 1) [6545A503] (AR v2)
Track 9 accurately ripped (confidence 1) [A4350029] (AR v2)
Track 10 accurately ripped (confidence 1) [303B7D7E] (AR v2)
Track 11 accurately ripped (confidence 1) [167FF0EA] (AR v2)
Track 12 accurately ripped (confidence 1) [A673DBAA] (AR v2)
Track 13 accurately ripped (confidence 1) [585EDDBE] (AR v2)
Track 14 accurately ripped (confidence 1) [6926D417] (AR v2)

All tracks accurately ripped

End of status report

–– CUETools DB Plugin V2.1.3

[CTDB TOCID: u.l9kEfR2D3FUWukJzhdN8c3LtU-] found, Submit result: u.l9kEfR2D3FUWukJzhdN8c3LtU- has been uploaded
[97f31549] (1/1) No match

==== Log checksum EB2C089629C0C1B57B4D6BA17616B287F9E8FDBFD810A8FC427E4EF112164D66 ====

DR Log
foobar2000 1.2.6 / Dynamic Range Meter 1.1.1
log date: 2016-12-29 23:31:41

––––––––––––––––––––––––––––––––––––––––
Analyzed: Cherry Poppin’ Daddies / The Boop-A-Doo
––––––––––––––––––––––––––––––––––––––––

DR Peak RMS Duration Track
––––––––––––––––––––––––––––––––––––––––
DR9 -0.38 dB -10.20 dB 2:24 01-That Lindy Hop
DR9 -0.38 dB -10.52 dB 2:37 02-The Joint Is Jumpin’
DR9 -0.35 dB -10.25 dB 3:21 03-42nd Street
DR9 -0.36 dB -10.28 dB 3:32 04-Kickin’ The Gong Around
DR9 -0.36 dB -10.50 dB 2:54 05-Let’s Misbehave
DR9 -0.37 dB -10.76 dB 3:40 06-Puttin’ On The Ritz
DR10 -0.36 dB -11.34 dB 2:17 07-We’re In The Money
DR10 -0.40 dB -12.19 dB 3:37 08-Night And Day
DR10 -0.39 dB -11.11 dB 3:24 09-Top Hat, White Tie And Tails
DR9 -0.36 dB -10.79 dB 2:58 10-Trickeration
DR9 -0.38 dB -10.82 dB 3:15 11-Lullaby Of Broadway
DR10 -0.36 dB -11.46 dB 2:26 12-Steppin’ Out With My Baby
DR9 -0.39 dB -10.62 dB 1:59 13-Temptation
DR10 -0.37 dB -11.03 dB 3:17 14-Doin’ The New Lowdown
––––––––––––––––––––––––––––––––––––––––

Number of tracks: 14
Official DR value: DR9

Samplerate: 44100 Hz
Channels: 2
Bits per sample: 16
Bitrate: 924 kbps
Codec: FLAC
================================================================================

CUETools Log
[CUETools log; Date: 29.12.2016 23:31:42; Version: 2.1.5]
[CTDB TOCID: u.l9kEfR2D3FUWukJzhdN8c3LtU-] found.
Track | CTDB Status
1 | (2/2) Accurately ripped
2 | (2/2) Accurately ripped
3 | (2/2) Accurately ripped
4 | (2/2) Accurately ripped
5 | (2/2) Accurately ripped
6 | (2/2) Accurately ripped
7 | (2/2) Accurately ripped
8 | (2/2) Accurately ripped
9 | (2/2) Accurately ripped
10 | (2/2) Accurately ripped
11 | (1/2) Accurately ripped
12 | (2/2) Accurately ripped
13 | (2/2) Accurately ripped
14 | (2/2) Accurately ripped
[AccurateRip ID: 00159bc2-00e78ea5-a809c30e] found.
Track [ CRC | V2 ] Status
01 [56b12e92|01424ab9] (0+1/2) Accurately ripped
02 [a5ba67b8|1ffa3e53] (0+1/2) Accurately ripped
03 [51372bea|65b3acd8] (0+1/2) Accurately ripped
04 [f08eaba3|4ebd6842] (0+1/2) Accurately ripped
05 [abf05922|b29e0d30] (0+1/2) Accurately ripped
06 [c2eb0581|55722511] (0+1/2) Accurately ripped
07 [9a65c06f|40a445d6] (0+1/2) Accurately ripped
08 [92f9cdd2|6545a503] (0+1/2) Accurately ripped
09 [6a1150a2|a4350029] (0+1/2) Accurately ripped
10 [579cbaee|303b7d7e] (0+1/2) Accurately ripped
11 [5db8cffe|167ff0ea] (0+1/2) Accurately ripped
12 [af4e587d|a673dbaa] (0+1/2) Accurately ripped
13 [0c3eb025|585eddbe] (0+1/2) Accurately ripped
14 [c56d5465|6926d417] (0+1/2) Accurately ripped

Track Peak [ CRC32 ] [W/O NULL] [ LOG ]
– 96,0 [BF18D815] [4EEFFD46] CRC32
01 95,7 [D9F90241] [C69DABCD]
02 95,7 [76932806] [397BD873]
03 96,0 [BF366EF2] [F65F1D59]
04 95,9 [502D3EAB] [5365E860]
05 95,9 [DAD26974] [2C66D792]
06 95,7 [5778A046] [8E9BB73C]
07 95,9 [6D7A045E] [BB154B44]
08 95,5 [47155C34] [4761B247]
09 95,6 [4A7C23AA] [61F1AAE5]
10 95,9 [AB094429] [CAB4CEBE]
11 95,7 [B6CE6688] [3D7170DF]
12 95,9 [CD2AA7E7] [7EF390F7]
13 95,6 [B8444F3B] [4086D2F2]
14 95,8 [75F570F0] [EF1A3543]

Cherry Poppin' Daddies - The Boop-A-Doo! (2016)

Cherry Poppin' Daddies - The Boop-A-Doo! (2016)

All thanks go to Boris1

> Cherry Poppin’ Daddies in my blog! <

Download:

Cherry Poppin' Daddies – The Boop-A-Doo! (2016) Download, Warez, DDL, Free, Full Album, Torrent, Legal.

Download


  • Recent Posts

  • Recent Tags