Charlie Parker – Bird's Eyes: Last Unissued, Vol. 25 (1950, 1953) {Philology W 855.2 rel 1999}

Download
Charlie Parker - Bird's Eyes: Last Unissued, Vol. 25 (1950, 1953) {Philology W 855.2 rel 1999}

Charlie Parker – Bird’s Eyes: Last Unissued, Vol. 25 (1950, 1953) {Philology W 855.2 rel 1999}
EAC rip (secure mode) | FLAC (tracks)+CUE+LOG -> 348 Mb | MP3 @320 -> 180 Mb
Full Artwork @ 300 dpi (jpg) -> 19 Mb | 5% repair rar
© 1950, 1953, 1999 Philology | W 855.2
Jazz / Bop / Bebop / Saxophone

Charlie Parker was a legendary Grammy Award–winning jazz saxophonist who, with Dizzy Gillespie, invented the musical style called bop or bebop. Charlie Parker was born on August 29, 1920, in Kansas City, Kansas. From 1935 to 1939, he played the Missouri nightclub scene with local jazz and blues bands. In 1945 he led his own group while performing with Dizzy Gillespie on the side. Together they invented bebop. In 1949, Parker made his European debut, giving his last performance several years later. He died a week later on March 12, 1955, in New York City.

More INFO & personnel…

tracklist:
01 – I Remember You
02 – All the Things You Are
03 – Just You, Just Me
04 – I’ll Remember April
05 – Hot House
06 – 52nd Street Theme, No. 2
07 – I Cover the Waterfront
08 – This Time the Dream’s on Me
09 – I’ll Remember April,52nd Street Theme, Pt. 3
10 – (Back Home Again In) Indiana
11 – I Can’t Get Started
12 – Anthropology
13 – Out of Nowhere
14 – Get Happy
15 – Hot House
16 – Embraceable You
17 – Body and Soul
18 – Cool Blues
19 – Stardust
20 – All the Things You Are
21 – Billie’s Bounce
22 – Pennies from Heaven

EAC log
EAC extraction logfile from 11. March 2011, 18:00 for CD
Charlie Parker / Bird’s Eyes Vol. 25

Used drive : HP DVD Writer 1170d Adapter: 1 ID: 2
Read mode : Secure with NO C2, accurate stream, disable cache
Read offset correction : 6
Overread into Lead-In and Lead-Out : No

Used output format : C:Program FilesFLACflac.exe (User Defined Encoder)
128 kBit/s
Additional command line options : -8 -V -T "ARTIST=%a" -T "TITLE=%t" -T "ALBUM=%g" -T "DATE=%y" -T "TRACKNUMBER=%n" -T "TOTALTRACKS=%x" -T "GENRE=%m" -T "ALBUM ARTIST=%v" -T "ALBUMARTIST=%v" -T "COMMENT=EAC V0.99 prebeta 4, Secure Mode,

Other options :
Fill up missing offset samples with silence : Yes
Delete leading and trailing silent blocks : No
Installed external ASPI interface

Track 1
Filename C:Documents and Settingsbird eyes251 – I Remember You.wav

Pre-gap length 0:00:02.44

Peak level 87.6 %
Track quality 100.0 %
Test CRC 67A59CE3
Copy CRC 67A59CE3
Copy OK

Track 2
Filename C:Documents and Settingsbird eyes252 – All the Things You Are.wav

Peak level 89.4 %
Track quality 99.9 %
Test CRC 1D7B10AA
Copy CRC 1D7B10AA
Copy OK

Track 3
Filename C:Documents and Settingsbird eyes253 – Just You, Just Me.wav

Peak level 94.7 %
Track quality 100.0 %
Test CRC 91AACC0B
Copy CRC 91AACC0B
Copy OK

Track 4
Filename C:Documents and Settingsbird eyes254 – I’ll Remember April.wav

Peak level 93.2 %
Track quality 99.9 %
Test CRC 1C7E651E
Copy CRC 1C7E651E
Copy OK

Track 5
Filename C:Documents and Settingsbird eyes255 – Hot House.wav

Peak level 84.2 %
Track quality 100.0 %
Test CRC E4C9C5F1
Copy CRC E4C9C5F1
Copy OK

Track 6
Filename C:Documents and Settingsbird eyes256 – 52nd Street Theme, No. 2.wav

Peak level 93.8 %
Track quality 100.0 %
Test CRC 4FFE19FE
Copy CRC 4FFE19FE
Copy OK

Track 7
Filename C:Documents and Settingsbird eyes257 – I Cover the Waterfront.wav

Peak level 72.9 %
Track quality 100.0 %
Test CRC 2BE76011
Copy CRC 2BE76011
Copy OK

Track 8
Filename C:Documents and Settingsbird eyes258 – This Time the Dream’s on Me.wav

Peak level 99.5 %
Track quality 99.9 %
Test CRC 48D88F5B
Copy CRC 48D88F5B
Copy OK

Track 9
Filename C:Documents and Settingsbird eyes259 – I’ll Remember April,52nd Street Theme, Pt. 3.wav

Peak level 72.0 %
Track quality 100.0 %
Test CRC 09ACBEA0
Copy CRC 09ACBEA0
Copy OK

Track 10
Filename C:Documents and Settingsbird eyes2510 – (Back Home Again In) Indiana.wav

Peak level 94.5 %
Track quality 100.0 %
Test CRC 7C0A2999
Copy CRC 7C0A2999
Copy OK

Track 11
Filename C:Documents and Settingsbird eyes2511 – I Can’t Get Started.wav

Peak level 85.1 %
Track quality 100.0 %
Test CRC 60894307
Copy CRC 60894307
Copy OK

Track 12
Filename C:Documents and Settingsbird eyes2512 – Anthropology.wav

Peak level 89.1 %
Track quality 100.0 %
Test CRC 7AB9FC8D
Copy CRC 7AB9FC8D
Copy OK

Track 13
Filename C:Documents and Settingsbird eyes2513 – Out of Nowhere.wav

Peak level 93.4 %
Track quality 100.0 %
Test CRC 8F1A9230
Copy CRC 8F1A9230
Copy OK

Track 14
Filename C:Documents and Settingsbird eyes2514 – Get Happy.wav

Peak level 100.0 %
Track quality 99.9 %
Test CRC 58B13DF1
Copy CRC 58B13DF1
Copy OK

Track 15
Filename C:Documents and Settingsbird eyes2515 – Hot House.wav

Peak level 92.0 %
Track quality 100.0 %
Test CRC 036CCCE5
Copy CRC 036CCCE5
Copy OK

Track 16
Filename C:Documents and Settingsbird eyes2516 – Embraceable You.wav

Peak level 87.8 %
Track quality 99.9 %
Test CRC 566C3BBE
Copy CRC 566C3BBE
Copy OK

Track 17
Filename C:Documents and Settingsbird eyes2517 – Body and Soul.wav

Peak level 81.8 %
Track quality 100.0 %
Test CRC AD48E818
Copy CRC AD48E818
Copy OK

Track 18
Filename C:Documents and Settingsbird eyes2518 – Cool Blues.wav

Peak level 87.3 %
Track quality 100.0 %
Test CRC 7AC8BC08
Copy CRC 7AC8BC08
Copy OK

Track 19
Filename C:Documents and Settingsbird eyes2519 – Stardust.wav

Peak level 86.4 %
Track quality 100.0 %
Test CRC C373BA88
Copy CRC C373BA88
Copy OK

Track 20
Filename C:Documents and Settingsbird eyes2520 – All the Things You Are.wav

Peak level 97.3 %
Track quality 100.0 %
Test CRC CDF29E1B
Copy CRC CDF29E1B
Copy OK

Track 21
Filename C:Documents and Settingsbird eyes2521 – Billie’s Bounce.wav

Peak level 88.2 %
Track quality 100.0 %
Test CRC A405BBB0
Copy CRC A405BBB0
Copy OK

Track 22
Filename C:Documents and Settingsbird eyes2522 – Pennies from Heaven.wav

Peak level 89.7 %
Track quality 100.0 %
Test CRC 457F1271
Copy CRC 457F1271
Copy OK

No errors occured

End of status report

Charlie Parker - Bird's Eyes: Last Unissued, Vol. 25 (1950, 1953) {Philology W 855.2 rel 1999}

Charlie Parker - Bird's Eyes: Last Unissued, Vol. 25 (1950, 1953) {Philology W 855.2 rel 1999}

thanks to Chato…

see more Charlie Parker…

NEXT -> more Charlie Parker on the way…

===

Charlie Parker – Bird's Eyes: Last Unissued, Vol. 25 (1950, 1953) {Philology W 855.2 rel 1999} Download, Warez, DDL, Free, Full Album, Torrent, Legal.

Download