Charlie Parker – Bird's Eyes: Last Unissued, Vol. 19 (1945, 1949) {Philology W 849.2 rel 1999}

Download
Charlie Parker - Bird's Eyes: Last Unissued, Vol. 19 (1945, 1949) {Philology W 849.2 rel 1999}

Charlie Parker – Bird’s Eyes: Last Unissued, Vol. 19 (1945, 1949) {Philology W 849.2 rel 1999}
EAC rip (secure mode) | FLAC (tracks)+CUE+LOG -> 295 Mb | MP3 @320 -> 165 Mb
Full Artwork @ 300 dpi (jpg) -> 18 Mb | 5% repair rar
© 1945, 1949, 1999 Philology | W 849.2
Jazz / Bop / Bebop / Saxophone

Charlie Parker was a legendary Grammy Award–winning jazz saxophonist who, with Dizzy Gillespie, invented the musical style called bop or bebop. Charlie Parker was born on August 29, 1920, in Kansas City, Kansas. From 1935 to 1939, he played the Missouri nightclub scene with local jazz and blues bands. In 1945 he led his own group while performing with Dizzy Gillespie on the side. Together they invented bebop. In 1949, Parker made his European debut, giving his last performance several years later. He died a week later on March 12, 1955, in New York City.

More INFO & personnel

tracklist:
01 – What’s The Matter Now
02 – I Want Every Bit Of It
03 – That’s The Blues
04 – G.I. Blues
05 – 4-F Blues
06 – Dream Of You
07 – Seventh Avenue
08 – Sorta Kinda
09 – Oh, Oh, My, My, Oh, Oh
10 – Lay Your Habits Down
11 – Triflin’ Woman Blues
12 – So Good This Morning
13 – Would You Do Me A Favor
14 – What More Can A Woman Do
15 – I’d Rather Have A Memory Than A Dream
16 – Mean To Me
17 – Lady Be Good
18 – The Squirrell
19 – Allen’s Alley
20 – Crazy Rhythm
21 – All The Things You are
22 – Waa-Hoo

EAC log
EAC extraction logfile from 19. March 2011, 20:38 for CD
Charlie Parker / Bird’s Eyes – Vol. 19

Used drive : HP DVD Writer 1170d Adapter: 1 ID: 0
Read mode : Secure with NO C2, accurate stream, disable cache
Read offset correction : 6
Overread into Lead-In and Lead-Out : No

Used output format : C:Program FilesFLACflac.exe (User Defined Encoder)
128 kBit/s
Additional command line options : -8 -V -T "ARTIST=%a" -T "TITLE=%t" -T "ALBUM=%g" -T "DATE=%y" -T "TRACKNUMBER=%n" -T "TOTALTRACKS=%x" -T "GENRE=%m" -T "ALBUM ARTIST=%v" -T "ALBUMARTIST=%v" -T "COMMENT=EAC V0.99 prebeta 4, Secure Mode,

Other options :
Fill up missing offset samples with silence : Yes
Delete leading and trailing silent blocks : No
Installed external ASPI interface

Track 1
Filename C:Documents and Settingsbirds eyes 191 – What’s The Matter Now .wav

Pre-gap length 0:00:02.44

Peak level 87.8 %
Track quality 100.0 %
Test CRC 15A2786A
Copy CRC 15A2786A
Copy OK

Track 2
Filename C:Documents and Settingsbirds eyes 192 – I Want Every Bit Of It.wav

Peak level 84.1 %
Track quality 100.0 %
Test CRC 1E98A310
Copy CRC 1E98A310
Copy OK

Track 3
Filename C:Documents and Settingsbirds eyes 193 – That’s The Blues.wav

Peak level 86.9 %
Track quality 100.0 %
Test CRC 05A1B613
Copy CRC 05A1B613
Copy OK

Track 4
Filename C:Documents and Settingsbirds eyes 194 – G.I. Blues.wav

Peak level 98.2 %
Track quality 100.0 %
Test CRC 572EE5AA
Copy CRC 572EE5AA
Copy OK

Track 5
Filename C:Documents and Settingsbirds eyes 195 – 4-F Blues.wav

Peak level 81.5 %
Track quality 100.0 %
Test CRC 6BA55BB2
Copy CRC 6BA55BB2
Copy OK

Track 6
Filename C:Documents and Settingsbirds eyes 196 – Dream Of You.wav

Peak level 82.2 %
Track quality 100.0 %
Test CRC 71350DEE
Copy CRC 71350DEE
Copy OK

Track 7
Filename C:Documents and Settingsbirds eyes 197 – Seventh Avenue.wav

Peak level 91.3 %
Track quality 100.0 %
Test CRC 237BC41C
Copy CRC 237BC41C
Copy OK

Track 8
Filename C:Documents and Settingsbirds eyes 198 – Sorta Kinda.wav

Peak level 86.2 %
Track quality 100.0 %
Test CRC 9344D260
Copy CRC 9344D260
Copy OK

Track 9
Filename C:Documents and Settingsbirds eyes 199 – Oh, Oh, My, My, Oh, Oh.wav

Peak level 86.8 %
Track quality 99.9 %
Test CRC 60E4ECF4
Copy CRC 60E4ECF4
Copy OK

Track 10
Filename C:Documents and Settingsbirds eyes 1910 – Lay Your Habits Down.wav

Peak level 96.3 %
Track quality 100.0 %
Test CRC 53CD98F7
Copy CRC 53CD98F7
Copy OK

Track 11
Filename C:Documents and Settingsbirds eyes 1911 – Triflin’ Woman Blues.wav

Peak level 90.7 %
Track quality 100.0 %
Test CRC 6D573673
Copy CRC 6D573673
Copy OK

Track 12
Filename C:Documents and Settingsbirds eyes 1912 – So Good This Morning.wav

Peak level 77.4 %
Track quality 100.0 %
Test CRC 099D59F2
Copy CRC 099D59F2
Copy OK

Track 13
Filename C:Documents and Settingsbirds eyes 1913 – Would You Do Me A Favor .wav

Peak level 96.4 %
Track quality 100.0 %
Test CRC ED539102
Copy CRC ED539102
Copy OK

Track 14
Filename C:Documents and Settingsbirds eyes 1914 – What More Can A Woman Do .wav

Peak level 74.7 %
Track quality 99.9 %
Test CRC D71289D0
Copy CRC D71289D0
Copy OK

Track 15
Filename C:Documents and Settingsbirds eyes 1915 – I’d Rather Have A Memory Than A Dream.wav

Peak level 97.2 %
Track quality 100.0 %
Test CRC 298153C0
Copy CRC 298153C0
Copy OK

Track 16
Filename C:Documents and Settingsbirds eyes 1916 – Mean To Me.wav

Peak level 97.2 %
Track quality 100.0 %
Test CRC D7C59C22
Copy CRC D7C59C22
Copy OK

Track 17
Filename C:Documents and Settingsbirds eyes 1917 – Lady Be Good.wav

Peak level 78.6 %
Track quality 100.0 %
Test CRC ABA406C7
Copy CRC ABA406C7
Copy OK

Track 18
Filename C:Documents and Settingsbirds eyes 1918 – The Squirrell.wav

Peak level 80.9 %
Track quality 100.0 %
Test CRC 5ECC10A8
Copy CRC 5ECC10A8
Copy OK

Track 19
Filename C:Documents and Settingsbirds eyes 1919 – Allen’s Alley.wav

Peak level 96.9 %
Track quality 100.0 %
Test CRC A0505B69
Copy CRC A0505B69
Copy OK

Track 20
Filename C:Documents and Settingsbirds eyes 1920 – Crazy Rhythm.wav

Peak level 74.4 %
Track quality 100.0 %
Test CRC 702E8BF0
Copy CRC 702E8BF0
Copy OK

Track 21
Filename C:Documents and Settingsbirds eyes 1921 – All The Things You are.wav

Peak level 70.6 %
Track quality 100.0 %
Test CRC 3AD28E62
Copy CRC 3AD28E62
Copy OK

Track 22
Filename C:Documents and Settingsbirds eyes 1922 – Waa-Hoo.wav

Peak level 61.4 %
Track quality 100.0 %
Test CRC F03C45F9
Copy CRC F03C45F9
Copy OK

No errors occured

End of status report

Charlie Parker - Bird's Eyes: Last Unissued, Vol. 19 (1945, 1949) {Philology W 849.2 rel 1999}

Charlie Parker - Bird's Eyes: Last Unissued, Vol. 19 (1945, 1949) {Philology W 849.2 rel 1999}

see also:
Charlie Parker – Bird: The Complete Charlie Parker On Verve (1946-1954) {2005 10CD Box Set Verve-Universal 983 3382}
Charlie Parker – Retrospective 1940-1953 (2005) {3CDs Set Saga}
Charlie Parker – One Night In Birdland (1950) [2CD] {2014 Japan Jazz Collection 1000 Columbia-RCA Series}
Charlie Parker – Unheard Bird: The Unissued Takes (2016) {2CD Verve Set}
Charlie Parker – Charlie Parker With Strings (2015) {2CD Verve Deluxe Edition}

Charlie Parker and His Orchestra – Swedish Schnapps (1951) {2014 Japan Universal 100 Series UCCU-99111}
Charlie Parker Quintet & Sextet – Bird In Boston: Live At The Hi-Hat 1953-1954 (2016) {2CD Fresh Sound Records}
Charlie Parker – Bird’s Eyes: Last Unissued, Volumes 1 & 4 (1990) {Philology W 518-2 rec 1937-1952}
Charlie Parker – Bird’s Eyes: Last Unissued, Vol. 9 (1949-1953) {Philology W 120.2 rel 1996}
Charlie Parker – Bird’s Eyes: Last Unissued, Vol. 10 (1949-1950) {Philology W 200.2 rel 1999}

Charlie Parker – Bird’s Eyes: Last Unissued, Vol. 12 (1949-1950) {Philology W 842.2 rel 1999}
Charlie Parker – Bird’s Eyes: Last Unissued, Vol. 13 (1948, 1956) {Philology W 843.2 rel 1999}
Charlie Parker – Bird’s Eyes: Last Unissued, Vol. 14 (1947-1949) {Philology W 844.2 rel 1999}
Charlie Parker – Bird’s Eyes: Last Unissued, Vol. 15 (1945, 1950) {Philology W 845.2 rel 1999}
Charlie Parker – Bird’s Eyes: Last Unissued, Vol. 16 (1951-1954) {Philology W 846.2 rel 1999}

Charlie Parker – Bird’s Eyes: Last Unissued, Vol. 17 (1945-1951) {Philology W 847.2 rel 1999}
Charlie Parker – Bird’s Eyes: Last Unissued, Vol. 18 (1946-1953) {Philology W 848.2 rel 1999}

NEXT -> more Charlie Parker on the way…

===

Charlie Parker – Bird's Eyes: Last Unissued, Vol. 19 (1945, 1949) {Philology W 849.2 rel 1999} Download, Warez, DDL, Free, Full Album, Torrent, Legal.

Download