Charles K. Noyes – Full Stop (2000)

Download
Charles K. Noyes - Full Stop (2000)

Charles K. Noyes – Full Stop (2000)
EAC Rip | FLAC (image+.cue+log) – 427 MB | MP3 CBR 320 kbps (LAME 3.93) – 173 MB | Covers – 68 MB
Genre: Ambient | RAR 3% Rec. | Label: Ecstatic Peace (E#20)

Percussionist Charles K. Noyes was a very active member of the downtown New York avant scene of the late ’70s and early ’80s, performing with musicians such as John Zorn, Elliott Sharp, and Fred Frith, before retreating from view during the ’90s. Full Stop provides a fairly full picture of what he was up to, compiling solo works recorded from 1990-1999. The overall mood is a bleak and harsh kind of ambient music, soundtracks for a barren, desensitized landscape but one that holds more than a hint of mystery. Percussion as a rhythmic element is almost entirely absent here. Instead, Noyes utilizes a range of processed sounds, strings, electronics, and the occasional musical saw to produce sonic pictures that might be described as the Eno of On Land in a particularly morose and misanthropic mood. Most of the pieces have a metallic undertone to them, but not one of high gloss. Rather, one can almost smell lubricating oils and ozone, as though one is sitting next to an old power plant out in the desert. Every track here is evocative and, while sticking within a generally similar approach and feel, each retains a uniqueness that allows for enough differentiation to make for new experiences on subsequent listenings. Gritty and unflinching, Full Stop is as fine a collection of "tough" ambient music as was released in the ’90s, and is highly recommended for those with a taste for the bitter.

Tracklist:
01. The Call
02. (From) Mud Into Animals
03. Mystery = Misery
04. The Urbanchich Method
05. John Cage In Heaven
06. In Memoriam Kathy Acker
07. White Noyes
08. A Separate Reality
09. Hex Code
10. Mizo No Oto
11. The System At War With Itself
12. Murder/Massage, U.S.A.

Total time: 01:13:35

EAC log
Exact Audio Copy V1.0 beta 2 from 29. April 2011

EAC extraction logfile from 21. July 2017, 23:17

Charles K. Noyes / Full Stop

Used drive : Optiarc DVD RW AD-5280S Adapter: 1 ID: 1

Read mode : Secure
Utilize accurate stream : Yes
Defeat audio cache : Yes
Make use of C2 pointers : No

Read offset correction : 48
Overread into Lead-In and Lead-Out : No
Fill up missing offset samples with silence : Yes
Delete leading and trailing silent blocks : No
Null samples used in CRC calculations : Yes
Used interface : Installed external ASPI interface

Used output format : User Defined Encoder
Selected bitrate : 128 kBit/s
Quality : High
Add ID3 tag : No
Command line compressor : C:Program FilesFLACflac.exe
Additional command line options : -V -8 -T "Genre=%genre%" -T "Artist=%artist%" -T "Title=%title%" -T "Album=%albumtitle%" -T "Date=%year%" -T "Tracknumber=%tracknr%" -T "Comment=%comment%" %source%

TOC of the extracted CD

Track | Start | Length | Start sector | End sector
––––––––––––––––––––––––––––-
1 | 0:00.00 | 1:45.31 | 0 | 7905
2 | 1:45.31 | 9:11.68 | 7906 | 49298
3 | 10:57.24 | 7:46.29 | 49299 | 84277
4 | 18:43.53 | 5:05.42 | 84278 | 107194
5 | 23:49.20 | 8:50.10 | 107195 | 146954
6 | 32:39.30 | 6:07.32 | 146955 | 174511
7 | 38:46.62 | 3:46.62 | 174512 | 191523
8 | 42:33.49 | 5:56.27 | 191524 | 218250
9 | 48:30.01 | 5:05.36 | 218251 | 241161
10 | 53:35.37 | 6:07.59 | 241162 | 268745
11 | 59:43.21 | 3:34.56 | 268746 | 284851
12 | 63:18.02 | 10:16.40 | 284852 | 331091

Range status and errors

Selected range

Filename C:Charles K. Noyes (2000) – Full StopCharles K. Noyes (2000) – Full Stop.wav

Peak level 100.0 %
Extraction speed 4.6 X
Range quality 100.0 %
Test CRC 2B99F5A2
Copy CRC 2B99F5A2
Copy OK

No errors occurred

AccurateRip summary

Track 1 accurately ripped (confidence 1) [B0A6201E] (AR v1)
Track 2 accurately ripped (confidence 1) [A2D27617] (AR v1)
Track 3 accurately ripped (confidence 1) [9AF6D423] (AR v1)
Track 4 accurately ripped (confidence 1) [910632F7] (AR v1)
Track 5 accurately ripped (confidence 1) [024B6C39] (AR v1)
Track 6 accurately ripped (confidence 1) [0476DC99] (AR v1)
Track 7 accurately ripped (confidence 1) [AD703369] (AR v1)
Track 8 accurately ripped (confidence 1) [C5B886DA] (AR v1)
Track 9 accurately ripped (confidence 1) [64CDF78D] (AR v1)
Track 10 accurately ripped (confidence 1) [644B8B55] (AR v1)
Track 11 accurately ripped (confidence 1) [CBF2A861] (AR v1)
Track 12 accurately ripped (confidence 1) [A96F5E2A] (AR v1)

All tracks accurately ripped

End of status report

==== Log checksum 226CAF4F4523CC48C3679E8843782A7A1CA46E104CB8E66DDBAD3773D8A0446B ====

CUETools log
[CUETools log; Date: 27.07.2017 14:36:59; Version: 2.1.4]
[CTDB TOCID: CVvy2BzdFFDV_o63TPIlCAEPAkY-] found.
Track | CTDB Status
1 | (1/1) Accurately ripped
2 | (1/1) Accurately ripped
3 | (1/1) Accurately ripped
4 | (1/1) Accurately ripped
5 | (1/1) Accurately ripped
6 | (1/1) Accurately ripped
7 | (1/1) Accurately ripped
8 | (1/1) Accurately ripped
9 | (1/1) Accurately ripped
10 | (1/1) Accurately ripped
11 | (1/1) Accurately ripped
12 | (1/1) Differs in 7 samples @03:50:20,04:01:37-04:01:38
[AccurateRip ID: 002021ac-012d01d8-9c113e0c] found.
Track [ CRC | V2 ] Status
01 [b0a6201e|ee15eeab] (1+0/1) Accurately ripped
02 [a2d27617|980ca7b4] (1+0/1) Accurately ripped
03 [9af6d423|19e469f0] (1+0/1) Accurately ripped
04 [910632f7|9eea1ffe] (1+0/1) Accurately ripped
05 [024b6c39|201eceda] (1+0/1) Accurately ripped
06 [0476dc99|0b96b3c0] (1+0/1) Accurately ripped
07 [ad703369|b7b28ecd] (1+0/1) Accurately ripped
08 [c5b886da|daf6e47e] (1+0/1) Accurately ripped
09 [64cdf78d|a8434d76] (1+0/1) Accurately ripped
10 [644b8b55|b34f207a] (1+0/1) Accurately ripped
11 [cbf2a861|5516750f] (1+0/1) Accurately ripped
12 [a96f5e2a|8e47b995] (1+0/1) Accurately ripped

Track Peak [ CRC32 ] [W/O NULL] [ LOG ]
– 100,0 [2B99F5A2] [1D5F4D46] CRC32
01 98,8 [D4C1C85F] [52BC0BFD]
02 98,8 [6CAC5E51] [3CDE509E]
03 98,8 [8264469C] [90863C17]
04 98,8 [A74F76F2] [83B9FF50]
05 100,0 [9E6F5689] [F0D4FDC7]
06 98,8 [CFFFABD5] [6E6A0E54]
07 100,0 [C951D485] [FB0F26EB]
08 73,2 [B57E0D25] [6C59485F]
09 98,8 [36E40198] [C514682A]
10 100,0 [5F446F62] [4B574FD9]
11 98,8 [66A3FA2F] [142EEA21]
12 100,0 [6FA5B0BF] [A396E1C4]

Thanks to gssmg7

Welcome to My Blog!

Charles K. Noyes – Full Stop (2000) Download, Warez, DDL, Free, Full Album, Torrent, Legal.

Download