Chanté Moore – Old School Lovin' (US CD5) (1994) {Silas/MCA}

Download
Chanté Moore - Old School Lovin' (US CD5) (1994) {Silas/MCA}

Chanté Moore – Old School Lovin’ (US CD5) (1994) {Silas/MCA}
EAC Rip | FLAC with CUE and log | scans | 162 mb
MP3 CBR 320kbps | RAR | 54 mb
Genre: R&B, soul

Old School Lovin’ is the first single from Chanté Moore’s sophomore album, A Love Supreme. Released in 1994, this single features four mixes of the song, including two "Hot Summer Breeze" versions.

Chanté Moore - Old School Lovin' (US CD5) (1994) {Silas/MCA}

1. Old School Lovin’ (LP Version) (4:59)
2. Old School Lovin’ (Extended Vocal Version) (5:55)
3. Old School Lovin’ (Short Hot Summer Breeze Version) (5:15)
4. Old School Lovin’ (Long Hot Summer Breeze Version) (6:56)

Produced by Laney Stewart & Kuk Harrell
Tracks 3 & 4: additional production: Lukman Ibrahim & Derek "Groov" Sochacki
Tracks 3 & 4 remixed by Laney Stewart & Kuk Harrell
Tracks 3 & 4 mixed by Kevin Davis

EAC Log
Exact Audio Copy V1.1 from 23. June 2015

EAC extraction logfile from 15. December 2016, 8:56

Chanté Moore / Old School Lovin’ (US CD5)

Used drive : TEAC DVD-ROM DV-28SW Adapter: 1 ID: 0

Read mode : Secure
Utilize accurate stream : Yes
Defeat audio cache : Yes
Make use of C2 pointers : No

Read offset correction : 6
Overread into Lead-In and Lead-Out : No
Fill up missing offset samples with silence : Yes
Delete leading and trailing silent blocks : No
Null samples used in CRC calculations : Yes
Used interface : Native Win32 interface for Win NT & 2000
Gap handling : Appended to previous track

Used output format : Internal WAV Routines
Sample format : 44.100 Hz; 16 Bit; Stereo

TOC of the extracted CD

Track | Start | Length | Start sector | End sector
––––––––––––––––––––––––––––-
1 | 0:00.00 | 5:02.20 | 0 | 22669
2 | 5:02.20 | 5:58.00 | 22670 | 49519
3 | 11:00.20 | 5:20.30 | 49520 | 73549
4 | 16:20.50 | 7:01.63 | 73550 | 105187

Track 1

Filename C:My DocumentsMy FLACChanté Moore – Old School Lovin’ (US CD5) (1994) [FLAC] {Silas, MCA}1 – Old School Lovin’ (LP Version).wav

Pre-gap length 0:00:02.00

Peak level 100.0 %
Extraction speed 3.0 X
Track quality 100.0 %
Test CRC E9DC7722
Copy CRC E9DC7722
Accurately ripped (confidence 1) [D100E447] (AR v2)
Copy OK

Track 2

Filename C:My DocumentsMy FLACChanté Moore – Old School Lovin’ (US CD5) (1994) [FLAC] {Silas, MCA}2 – Old School Lovin’ (Extended Vocal Version).wav

Pre-gap length 0:00:01.47

Peak level 100.0 %
Extraction speed 3.4 X
Track quality 100.0 %
Test CRC F99AFC8C
Copy CRC F99AFC8C
Accurately ripped (confidence 1) [9641371F] (AR v2)
Copy OK

Track 3

Filename C:My DocumentsMy FLACChanté Moore – Old School Lovin’ (US CD5) (1994) [FLAC] {Silas, MCA}3 – Old School Lovin’ (Short Hot Summer Breeze Version).wav

Pre-gap length 0:00:01.65

Peak level 100.0 %
Extraction speed 3.7 X
Track quality 100.0 %
Test CRC 7C6B9405
Copy CRC 7C6B9405
Accurately ripped (confidence 1) [FEE4B22D] (AR v2)
Copy OK

Track 4

Filename C:My DocumentsMy FLACChanté Moore – Old School Lovin’ (US CD5) (1994) [FLAC] {Silas, MCA}4 – Old School Lovin’ (Long Hot Summer Breeze Version).wav

Pre-gap length 0:00:01.15

Peak level 100.0 %
Extraction speed 4.2 X
Track quality 100.0 %
Test CRC 699111D8
Copy CRC 699111D8
Accurately ripped (confidence 2) [8E6D2608] (AR v1)
Copy OK

All tracks accurately ripped

No errors occurred

End of status report

–– CUETools DB Plugin V2.1.6

[CTDB TOCID: qon9GtYkI.ZuSWS08Zfr9bMeuKg-] found
Submit result: qon9GtYkI.ZuSWS08Zfr9bMeuKg- has been confirmed
Track | CTDB Status
1 | (1/1) Accurately ripped
2 | (1/1) Accurately ripped
3 | (1/1) Accurately ripped
4 | (1/1) Accurately ripped

==== Log checksum 6509B72E59F6B031D73BC17A3A2757287BE33D95F730A031CA1EC1D7E3A4C857 ====

Chanté Moore - Old School Lovin' (US CD5) (1994) {Silas/MCA}

Chanté Moore – Old School Lovin' (US CD5) (1994) {Silas/MCA} Download, Warez, DDL, Free, Full Album, Torrent, Legal.

Download