Chanté Moore – A Love Supreme (1994) {Silas/MCA} | ViralVideoPk

Daily Dose of Free Downloads

Chanté Moore – A Love Supreme (1994) {Silas/MCA}

Download

Chanté Moore - A Love Supreme (1994) {Silas/MCA}

Chanté Moore – A Love Supreme (1994) {Silas/MCA}
EAC Rip | FLAC with CUE and log | scans | 480 mb
MP3 CBR 320kbps | RAR | 166 mb
Genre: R&B, soul

A Love Supreme is the second album from American soul vocalist Chanté Moore. Released by Silas/MCA Records, this featured the hit songs "Old School Lovin’", "This Time" and a single released only in the UK, "Free/Sail On".

Chanté Moore - A Love Supreme (1994) {Silas/MCA}

01. Intro
02. Searchin’
03. This Time
04. My Special Perfect One
05. I’m What You Need
06. Your Love’s Supreme
07. Old School Lovin
08. Free/Sail On
09. Without Your Love(Interlude)
10. I Want To Thank You
11. Mood
12. Thank You For Loving Me
13. Soul Dance
14. Am I Losing You?
15. Thou Shalt Not

Mastered by Herb Powers Jr.

EAC Log
Exact Audio Copy V1.1 from 23. June 2015

EAC extraction logfile from 15. December 2016, 7:56

Chanté Moore / A Love Supreme

Used drive : TEAC DVD-ROM DV-28SW Adapter: 1 ID: 0

Read mode : Secure
Utilize accurate stream : Yes
Defeat audio cache : Yes
Make use of C2 pointers : No

Read offset correction : 6
Overread into Lead-In and Lead-Out : No
Fill up missing offset samples with silence : Yes
Delete leading and trailing silent blocks : No
Null samples used in CRC calculations : Yes
Used interface : Native Win32 interface for Win NT & 2000
Gap handling : Appended to previous track

Used output format : Internal WAV Routines
Sample format : 44.100 Hz; 16 Bit; Stereo

TOC of the extracted CD

Track | Start | Length | Start sector | End sector
––––––––––––––––––––––––––––-
1 | 0:00.00 | 0:51.55 | 0 | 3879
2 | 0:51.55 | 5:35.70 | 3880 | 29074
3 | 6:27.50 | 6:01.25 | 29075 | 56174
4 | 12:29.00 | 5:30.15 | 56175 | 80939
5 | 17:59.15 | 5:01.00 | 80940 | 103514
6 | 23:00.15 | 4:30.30 | 103515 | 123794
7 | 27:30.45 | 5:02.10 | 123795 | 146454
8 | 32:32.55 | 5:49.37 | 146455 | 172666
9 | 38:22.17 | 0:54.20 | 172667 | 176736
10 | 39:16.37 | 7:59.18 | 176737 | 212679
11 | 47:15.55 | 4:10.25 | 212680 | 231454
12 | 51:26.05 | 4:59.62 | 231455 | 253941
13 | 56:25.67 | 4:16.25 | 253942 | 273166
14 | 60:42.17 | 6:00.70 | 273167 | 300236
15 | 66:43.12 | 4:49.50 | 300237 | 321961

Track 1

Filename C:My DocumentsMy FLACChanté Moore – A Love Supreme (1994) [FLAC] {Silas, MCA}1 – Intro.wav

Pre-gap length 0:00:02.00

Peak level 97.7 %
Extraction speed 1.7 X
Track quality 100.0 %
Test CRC 5A42BFA5
Copy CRC 5A42BFA5
Accurately ripped (confidence 8) [A2999650] (AR v2)
Copy OK

Track 2

Filename C:My DocumentsMy FLACChanté Moore – A Love Supreme (1994) [FLAC] {Silas, MCA}2 – Searchin’.wav

Peak level 97.7 %
Extraction speed 2.9 X
Track quality 100.0 %
Test CRC BDA6F3CC
Copy CRC BDA6F3CC
Accurately ripped (confidence 8) [D8E86B34] (AR v2)
Copy OK

Track 3

Filename C:My DocumentsMy FLACChanté Moore – A Love Supreme (1994) [FLAC] {Silas, MCA}3 – This Time.wav

Peak level 97.7 %
Extraction speed 3.4 X
Track quality 100.0 %
Test CRC 5A749FDE
Copy CRC 5A749FDE
Accurately ripped (confidence 8) [0841FB54] (AR v2)
Copy OK

Track 4

Filename C:My DocumentsMy FLACChanté Moore – A Love Supreme (1994) [FLAC] {Silas, MCA}4 – My Special Perfect One.wav

Peak level 97.7 %
Extraction speed 3.7 X
Track quality 100.0 %
Test CRC 5B755CAC
Copy CRC 5B755CAC
Accurately ripped (confidence 8) [5FAF69ED] (AR v2)
Copy OK

Track 5

Filename C:My DocumentsMy FLACChanté Moore – A Love Supreme (1994) [FLAC] {Silas, MCA}5 – I’m What You Need.wav

Peak level 100.0 %
Extraction speed 3.9 X
Track quality 100.0 %
Test CRC 888594F1
Copy CRC 888594F1
Accurately ripped (confidence 9) [87207744] (AR v2)
Copy OK

Track 6

Filename C:My DocumentsMy FLACChanté Moore – A Love Supreme (1994) [FLAC] {Silas, MCA}6 – Your Love’s Supreme.wav

Peak level 97.7 %
Extraction speed 3.5 X
Track quality 100.0 %
Test CRC 3A649853
Copy CRC 3A649853
Accurately ripped (confidence 9) [9CCF82E8] (AR v2)
Copy OK

Track 7

Filename C:My DocumentsMy FLACChanté Moore – A Love Supreme (1994) [FLAC] {Silas, MCA}7 – Old School Lovin’.wav

Peak level 100.0 %
Extraction speed 3.8 X
Track quality 99.9 %
Test CRC 446C3A5A
Copy CRC 446C3A5A
Accurately ripped (confidence 9) [B97525F2] (AR v2)
Copy OK

Track 8

Filename C:My DocumentsMy FLACChanté Moore – A Love Supreme (1994) [FLAC] {Silas, MCA}8 – Free,Sail On.wav

Pre-gap length 0:00:01.43

Peak level 97.7 %
Extraction speed 4.7 X
Track quality 100.0 %
Test CRC 4D6D4575
Copy CRC 4D6D4575
Accurately ripped (confidence 8) [F8EE417D] (AR v2)
Copy OK

Track 9

Filename C:My DocumentsMy FLACChanté Moore – A Love Supreme (1994) [FLAC] {Silas, MCA}9 – Without Your Love (Interlude).wav

Peak level 97.7 %
Extraction speed 3.1 X
Track quality 100.0 %
Test CRC 0CF01BE8
Copy CRC 0CF01BE8
Accurately ripped (confidence 8) [2B623FE2] (AR v2)
Copy OK

Track 10

Filename C:My DocumentsMy FLACChanté Moore – A Love Supreme (1994) [FLAC] {Silas, MCA}10 – I Want To Thank You.wav

Peak level 100.0 %
Extraction speed 5.0 X
Track quality 100.0 %
Test CRC EBCDAEBA
Copy CRC EBCDAEBA
Accurately ripped (confidence 7) [7F942FDF] (AR v2)
Copy OK

Track 11

Filename C:My DocumentsMy FLACChanté Moore – A Love Supreme (1994) [FLAC] {Silas, MCA}11 – Mood.wav

Pre-gap length 0:00:00.01

Peak level 97.7 %
Extraction speed 4.2 X
Track quality 99.9 %
Test CRC 1DCC1668
Copy CRC 1DCC1668
Accurately ripped (confidence 7) [C7CC3B8E] (AR v2)
Copy OK

Track 12

Filename C:My DocumentsMy FLACChanté Moore – A Love Supreme (1994) [FLAC] {Silas, MCA}12 – Thank You For Loving Me.wav

Peak level 93.3 %
Extraction speed 5.1 X
Track quality 100.0 %
Test CRC 511FA753
Copy CRC 511FA753
Accurately ripped (confidence 7) [313CD7BE] (AR v2)
Copy OK

Track 13

Filename C:My DocumentsMy FLACChanté Moore – A Love Supreme (1994) [FLAC] {Silas, MCA}13 – Soul Dance.wav

Peak level 97.7 %
Extraction speed 0.7 X
Track quality 100.0 %
Test CRC 91E0A8E0
Copy CRC 91E0A8E0
Accurately ripped (confidence 7) [3FCBF66F] (AR v2)
Copy OK

Track 14

Filename C:My DocumentsMy FLACChanté Moore – A Love Supreme (1994) [FLAC] {Silas, MCA}14 – Am I Losing You.wav

Pre-gap length 0:00:01.37

Peak level 78.8 %
Extraction speed 5.6 X
Track quality 100.0 %
Test CRC EC543196
Copy CRC EC543196
Accurately ripped (confidence 6) [7024552E] (AR v2)
Copy OK

Track 15

Filename C:My DocumentsMy FLACChanté Moore – A Love Supreme (1994) [FLAC] {Silas, MCA}15 – Thou Shalt Not.wav

Peak level 97.7 %
Extraction speed 5.7 X
Track quality 100.0 %
Test CRC EDE97B37
Copy CRC EDE97B37
Accurately ripped (confidence 7) [42181C61] (AR v2)
Copy OK

All tracks accurately ripped

No errors occurred

End of status report

–– CUETools DB Plugin V2.1.6

[CTDB TOCID: Ier.sGgJfgs9Sp1MmOPa9Xhx5LU-] found
Submit result: Ier.sGgJfgs9Sp1MmOPa9Xhx5LU- has been confirmed
Track | CTDB Status
1 | (15/15) Accurately ripped
2 | (10/15) Accurately ripped, or (4/15) differs in 12 samples @00:59:73
3 | (15/15) Accurately ripped
4 | (15/15) Accurately ripped
5 | (15/15) Accurately ripped
6 | (15/15) Accurately ripped
7 | (15/15) Accurately ripped
8 | (15/15) Accurately ripped
9 | (15/15) Accurately ripped
10 | (15/15) Accurately ripped
11 | (15/15) Accurately ripped
12 | (15/15) Accurately ripped
13 | (15/15) Accurately ripped
14 | (15/15) Accurately ripped
15 | (14/15) Accurately ripped

==== Log checksum 13C1D7CF9803687F073E902A288DCBB672C8B7F8742A4AABB91EE69561283255 ====

Chanté Moore - A Love Supreme (1994) {Silas/MCA}

Chanté Moore – A Love Supreme (1994) {Silas/MCA} Download, Warez, DDL, Free, Full Album, Torrent, Legal.

Download


  • Recent Posts

  • Recent Tags