Cathy Berberian a Hommage (Walton, Monteverdi, Debussy, Stravinsky, Cage, Gerschwin, Purcell) [1997]

Download
Cathy Berberian a Hommage (Walton, Monteverdi, Debussy, Stravinsky, Cage, Gerschwin, Purcell) [1997]

Cathy Berberian a Hommage (Bernasconi, Travis; W. Walton, Cl. Monteverdi, Cl. Debussy,
I. Stravinsky/Стравинский, J. Cage, G. Gerschwin, H. Purcell) [1997]

EAC Rip | FLAC, IMG+CUE, LOG | Covers | 1cd, 315 MB
Classical | Label: Accore / MPO, France | Catalog Number: 205722 | TT: 70’55

Catherine Anahid Berberian (July 4, 1925 – March 6, 1983) was an American soprano and composer. She interpreted contemporary avant-garde music composed, among others, by Luciano Berio, Bruno Maderna, John Cage, Henri Pousseur, Sylvano Bussotti, Darius Milhaud, Roman Haubenstock-Ramati, and Igor Stravinsky. She also interpreted works by Claudio Monteverdi, Heitor Villa-Lobos, Kurt Weill, Philipp Zu Eulenburg, arrangements of songs by The Beatles, and folk songs from several countries and cultures. As a composer, she wrote Stripsody (1966), in which she exploits her vocal technique using comic book sounds (onomatopoeia), and Morsicat(h)y (1969), a composition for the keyboard (with the right hand only) based on Morse code.

Tracklisting:
1.-22. William Walton (1902-1983)
Facade, an entertainment with poems 37’36
by Edith Sitwell (1921-1922 ; rev. 1942)
Avec le concours de Jack Buckley, voix Ensemble Musica insieme di Cremona
Dir. Giorgio Bernasconi

23. Claudio Monteverdi (1567-1643)
La lettera amorosa 6’07

24.-26. Claude Debussy (1862-1918)
3 chansons de Bilitis (1897-1898) 7’49

27.-30. Igor Stravinski (1882-1971)
Pribaoutki (4 chansons plaisantes) (1914) 4’05

31.-32. John Cage (1912-1992)
A flower – Wonderful widow of 18 springs 4’15

33. George Gershwin (1898-1937)
"Summertime" (de "Porgv and Bess,") 2’11
(n° 2, 3, 4, 5, 6 : au piano/Bruno Canino)

34.-35. Henry Purcell (1659-1695)
Deux airs de " The Fairy Queen " 7’34
(Revision: Hermann Scnerchen)
Orchestre de la Radio Television de la Suisse Italienne
Dir. Francis Irving Travis

LOG
Exact Audio Copy V1.0 beta 3 from 29. August 2011

EAC extraction logfile from 19. January 2014, 14:56

C. Berberian / Cathy Berberian a Hommage

Used drive : ATAPI iHAS122 C Adapter: 0 ID: 1

Read mode : Secure
Utilize accurate stream : Yes
Defeat audio cache : Yes
Make use of C2 pointers : No

Read offset correction : 6
Overread into Lead-In and Lead-Out : No
Fill up missing offset samples with silence : Yes
Delete leading and trailing silent blocks : No
Null samples used in CRC calculations : Yes
Used interface : Installed external ASPI interface

Used output format : User Defined Encoder
Selected bitrate : 192 kBit/s
Quality : High
Add ID3 tag : No
Command line compressor : C:Program FilesExact Audio CopyFlacflac.exe
Additional command line options : -V -8 -T "Date=%year%" -T "Genre=%genre%" %source%

TOC of the extracted CD

Track | Start | Length | Start sector | End sector
––––––––––––––––––––––––––––-
1 | 0:00.32 | 0:34.55 | 32 | 2636
2 | 0:35.12 | 1:13.20 | 2637 | 8131
3 | 1:48.32 | 3:01.03 | 8132 | 21709
4 | 4:49.35 | 0:37.37 | 21710 | 24521
5 | 5:26.72 | 2:06.35 | 24522 | 34006
6 | 7:33.32 | 2:15.03 | 34007 | 44134
7 | 9:48.35 | 1:55.35 | 44135 | 52794
8 | 11:43.70 | 1:25.02 | 52795 | 59171
9 | 13:08.72 | 0:55.00 | 59172 | 63296
10 | 14:03.72 | 1:16.40 | 63297 | 69036
11 | 15:20.37 | 1:28.13 | 69037 | 75649
12 | 16:48.50 | 1:50.60 | 75650 | 83959
13 | 18:39.35 | 1:59.05 | 83960 | 92889
14 | 20:38.40 | 1:15.52 | 92890 | 98566
15 | 21:54.17 | 2:09.05 | 98567 | 108246
16 | 24:03.22 | 1:03.03 | 108247 | 112974
17 | 25:06.25 | 3:12.00 | 112975 | 127374
18 | 28:18.25 | 2:33.00 | 127375 | 138849
19 | 30:51.25 | 1:18.72 | 138850 | 144771
20 | 32:10.22 | 2:08.00 | 144772 | 154371
21 | 34:18.22 | 2:05.70 | 154372 | 163816
22 | 36:24.17 | 1:18.13 | 163817 | 169679
23 | 37:42.30 | 6:20.67 | 169680 | 198246
24 | 44:03.22 | 2:07.53 | 198247 | 207824
25 | 46:11.00 | 3:18.20 | 207825 | 222694
26 | 49:29.20 | 2:37.15 | 222695 | 234484
27 | 52:06.35 | 0:52.62 | 234485 | 238446
28 | 52:59.22 | 0:26.18 | 238447 | 240414
29 | 53:25.40 | 0:58.05 | 240415 | 244769
30 | 54:23.45 | 2:01.67 | 244770 | 253911
31 | 56:25.37 | 2:33.15 | 253912 | 265401
32 | 58:58.52 | 1:55.55 | 265402 | 274081
33 | 60:54.32 | 2:24.70 | 274082 | 284951
34 | 63:19.27 | 5:23.48 | 284952 | 309224
35 | 68:43.00 | 2:11.35 | 309225 | 319084

Range status and errors

Selected range

Filename C:Program FilesExact Audio CopyFlacCathy Berberian a Hommage.wav

Peak level 99.2 %
Extraction speed 10.0 X
Range quality 100.0 %
Test CRC 56C6718A
Copy CRC 56C6718A
Copy OK

No errors occurred

AccurateRip summary

Track 1 not present in database
Track 2 not present in database
Track 3 not present in database
Track 4 not present in database
Track 5 not present in database
Track 6 not present in database
Track 7 not present in database
Track 8 not present in database
Track 9 not present in database
Track 10 not present in database
Track 11 not present in database
Track 12 not present in database
Track 13 not present in database
Track 14 not present in database
Track 15 not present in database
Track 16 not present in database
Track 17 not present in database
Track 18 not present in database
Track 19 not present in database
Track 20 not present in database
Track 21 not present in database
Track 22 not present in database
Track 23 not present in database
Track 24 not present in database
Track 25 not present in database
Track 26 not present in database
Track 27 not present in database
Track 28 not present in database
Track 29 not present in database
Track 30 not present in database
Track 31 not present in database
Track 32 not present in database
Track 33 not present in database
Track 34 not present in database
Track 35 not present in database

None of the tracks are present in the AccurateRip database

End of status report

==== Log checksum FD612563412971883A5F89C5B086DBDEBE3F3D92E87E9DD35985FAFD7F598539 ====

Cathy Berberian a Hommage (Walton, Monteverdi, Debussy, Stravinsky, Cage, Gerschwin, Purcell) [1997] Download, Warez, DDL, Free, Full Album, Torrent, Legal.

Download