Carlos Mena – Hip-Hop Meditations (2004) | ViralVideoPk

Daily Dose of Free Downloads

Carlos Mena – Hip-Hop Meditations (2004)

Download

Carlos Mena - Hip-Hop Meditations (2004)

Carlos Mena – Hip-Hop Meditations (2004)
EAC Rip | FLAC with CUE and log | scans | 348 mb
MP3 CBR 320kbps | RAR | 141 mb
Genre: hip-hop, rap

Hip-Hop Meditations is the 2004 album by artist, producer, and DJ Carlos Mena. This was released on Bomb Hip-Hop.

Carlos Mena - Hip-Hop Meditations (2004)

1. Introducing Carlos Mena (Canto Pa Eleggua) (3:52)
2. Auction Block (3:39)
3. Tutu Laroye (0:20)
4. God Is You (3:37)
5. Yemaya (Meditation No. 1) (1:46)
6. Walking In The Light (3:16)
7. I.T.S.I.N.Y.O.U. (2:53)
8. Obatala (Meditation No. 2) (3:18)
9. Nine Haikus (2:48)
10. Orisha Drink (Voices In My Head) (2:32)
11. Sheets Of Sound (For Coltrane) (4:30)
12. Buscando Luz (4:11)
13. Eggun (Meditation No. 3) (1:20)
14. Red, White And Blue (2:46)
15. Crossroads (4:42)
16. Breathe (Meditation No. 4) (9:40)
17. Untitled (3:17)

Carlos Mena - Hip-Hop Meditations (2004)
EAC Log
Exact Audio Copy V1.1 from 23. June 2015

EAC extraction logfile from 28. December 2016, 8:21

Carlos Mena / Hip-Hop Meditations

Used drive : TEAC DVD-ROM DV-28SW Adapter: 1 ID: 0

Read mode : Secure
Utilize accurate stream : Yes
Defeat audio cache : Yes
Make use of C2 pointers : No

Read offset correction : 6
Overread into Lead-In and Lead-Out : No
Fill up missing offset samples with silence : Yes
Delete leading and trailing silent blocks : No
Null samples used in CRC calculations : Yes
Used interface : Native Win32 interface for Win NT & 2000
Gap handling : Appended to previous track

Used output format : Internal WAV Routines
Sample format : 44.100 Hz; 16 Bit; Stereo

TOC of the extracted CD

Track | Start | Length | Start sector | End sector
––––––––––––––––––––––––––––-
1 | 0:00.00 | 3:54.00 | 0 | 17549
2 | 3:54.00 | 4:40.02 | 17550 | 38551
3 | 8:34.02 | 0:20.22 | 38552 | 40073
4 | 8:54.24 | 3:35.04 | 40074 | 56202
5 | 12:29.28 | 1:50.49 | 56203 | 64501
6 | 14:20.02 | 3:18.46 | 64502 | 79397
7 | 17:38.48 | 2:54.60 | 79398 | 92507
8 | 20:33.33 | 3:20.42 | 92508 | 107549
9 | 23:54.00 | 2:51.73 | 107550 | 120447
10 | 26:45.73 | 2:33.56 | 120448 | 131978
11 | 29:19.54 | 4:32.18 | 131979 | 152396
12 | 33:51.72 | 4:12.47 | 152397 | 171343
13 | 38:04.44 | 2:10.65 | 171344 | 181158
14 | 40:15.34 | 2:47.61 | 181159 | 193744
15 | 43:03.20 | 4:44.00 | 193745 | 215044
16 | 47:47.20 | 9:59.56 | 215045 | 260025
17 | 57:47.01 | 3:17.03 | 260026 | 274803

Track 1

Filename C:My DocumentsMy FLACCarlos Mena – Hip-Hop Meditations (2004) [FLAC]1 – Introducing Carlos Mena (Canto Pa Eleggua).wav

Pre-gap length 0:00:02.00

Peak level 93.7 %
Extraction speed 2.7 X
Track quality 100.0 %
Test CRC AC86F1B5
Copy CRC AC86F1B5
Track not present in AccurateRip database
Copy OK

Track 2

Filename C:My DocumentsMy FLACCarlos Mena – Hip-Hop Meditations (2004) [FLAC]2 – Auction Block.wav

Pre-gap length 0:00:02.00

Peak level 99.9 %
Extraction speed 2.9 X
Track quality 100.0 %
Test CRC 80DDD15D
Copy CRC 80DDD15D
Track not present in AccurateRip database
Copy OK

Track 3

Filename C:My DocumentsMy FLACCarlos Mena – Hip-Hop Meditations (2004) [FLAC]3 – Tutu Laroye.wav

Peak level 30.2 %
Extraction speed 1.2 X
Track quality 100.0 %
Test CRC 86CE4BDA
Copy CRC 86CE4BDA
Track not present in AccurateRip database
Copy OK

Track 4

Filename C:My DocumentsMy FLACCarlos Mena – Hip-Hop Meditations (2004) [FLAC]4 – God Is You.wav

Peak level 100.0 %
Extraction speed 3.3 X
Track quality 100.0 %
Test CRC 9BD0B076
Copy CRC 9BD0B076
Track not present in AccurateRip database
Copy OK

Track 5

Filename C:My DocumentsMy FLACCarlos Mena – Hip-Hop Meditations (2004) [FLAC]5 – Yemaya (Meditation No. 1).wav

Peak level 100.0 %
Extraction speed 2.9 X
Track quality 100.0 %
Test CRC C5403FEE
Copy CRC C5403FEE
Track not present in AccurateRip database
Copy OK

Track 6

Filename C:My DocumentsMy FLACCarlos Mena – Hip-Hop Meditations (2004) [FLAC]6 – Walking In The Light.wav

Pre-gap length 0:00:02.00

Peak level 99.9 %
Extraction speed 2.5 X
Track quality 100.0 %
Test CRC 37B3B098
Copy CRC 37B3B098
Track not present in AccurateRip database
Copy OK

Track 7

Filename C:My DocumentsMy FLACCarlos Mena – Hip-Hop Meditations (2004) [FLAC]7 – I.T.S.I.N.Y.O.U..wav

Pre-gap length 0:00:02.00

Peak level 100.0 %
Extraction speed 3.6 X
Track quality 100.0 %
Test CRC AF41C8C7
Copy CRC AF41C8C7
Track not present in AccurateRip database
Copy OK

Track 8

Filename C:My DocumentsMy FLACCarlos Mena – Hip-Hop Meditations (2004) [FLAC]8 – Obatala (Meditation No. 2).wav

Pre-gap length 0:00:02.00

Peak level 99.6 %
Extraction speed 3.8 X
Track quality 100.0 %
Test CRC E3278E70
Copy CRC E3278E70
Track not present in AccurateRip database
Copy OK

Track 9

Filename C:My DocumentsMy FLACCarlos Mena – Hip-Hop Meditations (2004) [FLAC]9 – Nine Haikus.wav

Pre-gap length 0:00:02.00

Peak level 95.5 %
Extraction speed 3.2 X
Track quality 99.9 %
Test CRC B4019BED
Copy CRC B4019BED
Track not present in AccurateRip database
Copy OK

Track 10

Filename C:My DocumentsMy FLACCarlos Mena – Hip-Hop Meditations (2004) [FLAC]10 – Orisha Drink (Voices In My Head).wav

Pre-gap length 0:00:02.00

Peak level 100.0 %
Extraction speed 3.8 X
Track quality 100.0 %
Test CRC 31254AAE
Copy CRC 31254AAE
Track not present in AccurateRip database
Copy OK

Track 11

Filename C:My DocumentsMy FLACCarlos Mena – Hip-Hop Meditations (2004) [FLAC]11 – Sheets Of Sound (For Coltrane).wav

Pre-gap length 0:00:02.00

Peak level 63.1 %
Extraction speed 3.9 X
Track quality 99.9 %
Test CRC 347C0D53
Copy CRC 347C0D53
Track not present in AccurateRip database
Copy OK

Track 12

Filename C:My DocumentsMy FLACCarlos Mena – Hip-Hop Meditations (2004) [FLAC]12 – Buscando Luz.wav

Pre-gap length 0:00:02.00

Peak level 100.0 %
Extraction speed 3.7 X
Track quality 99.9 %
Test CRC 8F19392A
Copy CRC 8F19392A
Track not present in AccurateRip database
Copy OK

Track 13

Filename C:My DocumentsMy FLACCarlos Mena – Hip-Hop Meditations (2004) [FLAC]13 – Eggun (Meditation No. 3).wav

Pre-gap length 0:00:02.00

Peak level 100.0 %
Extraction speed 3.2 X
Track quality 100.0 %
Test CRC 0DAD3933
Copy CRC 0DAD3933
Track not present in AccurateRip database
Copy OK

Track 14

Filename C:My DocumentsMy FLACCarlos Mena – Hip-Hop Meditations (2004) [FLAC]14 – Red, White And Blue.wav

Pre-gap length 0:00:02.00

Peak level 41.0 %
Extraction speed 2.7 X
Track quality 100.0 %
Test CRC C9989AEE
Copy CRC C9989AEE
Track not present in AccurateRip database
Copy OK

Track 15

Filename C:My DocumentsMy FLACCarlos Mena – Hip-Hop Meditations (2004) [FLAC]15 – Crossroads.wav

Pre-gap length 0:00:02.00

Peak level 100.0 %
Extraction speed 4.7 X
Track quality 100.0 %
Test CRC 2F9C1DF9
Copy CRC 2F9C1DF9
Track not present in AccurateRip database
Copy OK

Track 16

Filename C:My DocumentsMy FLACCarlos Mena – Hip-Hop Meditations (2004) [FLAC]16 – Breathe (Meditation No. 4).wav

Pre-gap length 0:00:02.00

Peak level 100.0 %
Extraction speed 5.4 X
Track quality 100.0 %
Test CRC 26337D42
Copy CRC 26337D42
Track not present in AccurateRip database
Copy OK

Track 17

Filename C:My DocumentsMy FLACCarlos Mena – Hip-Hop Meditations (2004) [FLAC]17 – Untitled.wav

Pre-gap length 0:00:20.00

Peak level 100.0 %
Extraction speed 4.1 X
Track quality 100.0 %
Test CRC 4A576656
Copy CRC 4A576656
Track not present in AccurateRip database
Copy OK

None of the tracks are present in the AccurateRip database

No errors occurred

End of status report

–– CUETools DB Plugin V2.1.6

[CTDB TOCID: neRzMcLhTUWQliWr92zw02Rd1h8-] found
Submit result: neRzMcLhTUWQliWr92zw02Rd1h8- has been confirmed
Track | CTDB Status
1 | (1/1) Accurately ripped
2 | (1/1) Accurately ripped
3 | (1/1) Accurately ripped
4 | (1/1) Accurately ripped
5 | (1/1) Accurately ripped
6 | (1/1) Accurately ripped
7 | (1/1) Accurately ripped
8 | (1/1) Accurately ripped
9 | (1/1) Accurately ripped
10 | (1/1) Accurately ripped
11 | (1/1) Accurately ripped
12 | (1/1) Accurately ripped
13 | (1/1) Accurately ripped
14 | (1/1) Accurately ripped
15 | (1/1) Accurately ripped
16 | (1/1) Accurately ripped
17 | (1/1) Accurately ripped

==== Log checksum 7CD09AEB4834FBA76DD09E45286F6E15AEBB698CD29A6C2E82EC870B717FFD4E ====

Carlos Mena - Hip-Hop Meditations (2004)

Carlos Mena – Hip-Hop Meditations (2004) Download, Warez, DDL, Free, Full Album, Torrent, Legal.

Download


  • Recent Posts

  • Recent Tags