Capella Tiberina; Corina Marti, Alexandra Nigito – Alessandro Scarlatti: 12 Sinfonie di Concerto grosso (2015) 2CDs

Download

Alessandro Scarlatti was one of the leading composers in Italy in the decades around 1700. His reputation was founded on his operas, serenatas, oratorios, liturgical works and especially his chamber cantatas. It is notable that he almost exclusively confined himself to vocal music and composed hardly any instrumental works. Why did he turn to the genre of the concerto at a relatively old age? He was 50 when he started the composition of these Sinfonie di concerto grosso in 1715.

That title is not quite correct. It is only the first concerto which uses the words concerto grosso, whereas the second is called Sinfonia Concertata Con li ripieni. The other concertos have no titles at all. Eight of them are in fact solo concertos for recorder. Only the remaining four can be considered concerti grossi as they include two solo parts, for recorder and either a second recorder (Nos. 1 and 5), an oboe (No. 4) or a trumpet (No. 2). Every concerto in the set has a separate cello part which is distinct from the basso continuo part.

The separate parts are collected under the title 12 Sinfonias and Concertos. That could give us a clue as to the reasons why Scarlatti started to compose them. Several composers of the time published collections under such a title, and as domestic music-making was becoming increasingly popular he may have seen an opportunity to raise his income. Unfortunately they were never published. They have been preserved in two manuscripts which are now in the British Library. Was it Scarlatti’s intention to have them published in London? Quite possible, because Italian music was very popular in England, and so was the recorder. This could have been the reason he gave this instrument such an important role, especially considering that he didn’t like wind instruments which he said were unbearably out of tune.

These concertos are in five movements: fast – slow – fast – slow – fast. The exceptions are No. 4 which omits the opening fast movement and No. 9 the last movement of which is followed by a menuet. These are not solo concertos of the kind we know from Vivaldi. Scarlatti didn’t adhere to the ritornello form. The solo part is fully integrated into the ensemble. It is especially in the slow movements that the recorder – in four concertos joined by the second solo instrument – has the opportunity to shine.

Although Scarlatti was a seasoned composer of music for the theatre there are few dramatic features in these concertos. Alessandro Lattanzi, in his liner-notes, sees some similarity between the opening and closing movements and the opera sinfonias. The recorder parts are not virtuosic; that seems to confirm that Scarlatti had the amateur market in mind while composing these concertos.

The concertos featured here are not that well known. I am aware of only one complete recording: by the Accademia della Magnifica Comunità (Tactus, 2002/2007; two separate discs). The performances are good, but they perform the tutti with one instrument per part. However, two concertos include indications of a distinction between soli and tutti or of ripieni which seems to point in the direction of performance with a larger ensemble.

Some years ago Corina Marti and the Capella Tiberina delighted us with the complete recording of the twelve recorder concertos by Francesco Mancini, another Neapolitan composer of a later generation (review). This new production is just as enjoyable as the Mancini set. Ms Marti is a very fine player and the ensemble acts on the same level. This recording makes one regret that Scarlatti didn’t compose much more for instrumental ensemble.

Review by Johan van Veen, Allmusic.com

Capella Tiberina; Corina Marti, Alexandra Nigito - Alessandro Scarlatti: 12 Sinfonie di Concerto grosso (2015) 2CDs

Alessandro Scarlatti at Allmusic
Alessandro Scarlatti at Wiki

Capella Tiberina
Corina Marti, recorder
Ann Allen, oboe, recorder
Giuseppe Frau, trumpet
Paolo Perrone, concertmaster
Alexandra Nigito, harpsichord

rec. 21-24 January, 7-9 July 2014, Christkatholische Kirche, Möhlin, Switzerland. DDD

Tracklist:

CD1:
01. Sinfonia No 2 in D major – I. Spiritoso (00:58)
02. Sinfonia No 2 in D major – II. Adagio (01:02)
03. Sinfonia No 2 in D major – III. Allegro (02:00)
04. Sinfonia No 2 in D major – IV. Adagio (01:26)
05. Sinfonia No 2 in D major – V. Presto (02:03)
06. Sinfonia No 3 in d minor – I. Vivace (00:39)
07. Sinfonia No 3 in d minor – II. Adagio (01:37)
08. Sinfonia No 3 in d minor – III. Andante (02:05)
09. Sinfonia No 3 in d minor – IV. Adagio (01:16)
10. Sinfonia No 3 in d minor – V. Allegro (01:52)
11. Sinfonia No 6 in a minor – I. Vivace (00:38)
12. Sinfonia No 6 in a minor – II. Adagio (01:42)
13. Sinfonia No 6 in a minor – III. Allegro (02:05)
14. Sinfonia No 6 in a minor – IV. Adagio (01:43)
15. Sinfonia No 6 in a minor – V. Allegro (01:07)
16. Sinfonia No 7 in g minor – I. Moderato (00:52)
17. Sinfonia No 7 in g minor – II. Moderato (02:42)
18. Sinfonia No 7 in g minor – III. Grave (02:09)
19. Sinfonia No 7 in g minor – IV. Allegro (01:11)
20. Sinfonia No 8 in G major – I. Allegrissimo (00:56)
21. Sinfonia No 8 in G major – II. Adagio (01:20)
22. Sinfonia No 8 in G major – III. Allegro (01:46)
23. Sinfonia No 8 in G major – IV. Adagio (01:04)
24. Sinfonia No 8 in G major – V. Vivace (01:15)
25. Sinfonia No 12 in c minor ‘La geniale’ – I. Adagio e staccato (01:50)
26. Sinfonia No 12 in c minor ‘La geniale’ – II. Andante giusto (02:24)
27. Sinfonia No 12 in c minor ‘La geniale’ – III. Adagio (02:17)
28. Sinfonia No 12 in c minor ‘La geniale’ – IV. Andante moderato (02:20)

CD2:

01. Sinfonia No 1 in F major – I. Allegro (00:51)
02. Sinfonia No 1 in F major – II. Adagio (00:54)
03. Sinfonia No 1 in F major – III. Allegro (01:50)
04. Sinfonia No 1 in F major – IV. Adagio (00:53)
05. Sinfonia No 1 in F major – V. Allegro (01:22)
06. Sinfonia No 4 in e minor – I. Vivace (00:51)
07. Sinfonia No 4 in e minor – II. Adagio (01:08)
08. Sinfonia No 4 in e minor – III. Allegro (01:43)
09. Sinfonia No 4 in e minor – IV. Adagio (01:35)
10. Sinfonia No 4 in e minor – V. Allegro (01:51)
11. Sinfonia No 5 in d minor – I. Spiritoso e staccato (01:11)
12. Sinfonia No 5 in d minor – II. Adagio (01:37)
13. Sinfonia No 5 in d minor – III. Allegro (02:15)
14. Sinfonia No 5 in d minor – IV. Adagio (01:35)
15. Sinfonia No 5 in d minor – V. Allegro assai (01:32)
16. Sinfonia No 9 in g minor – I. Vivace (00:42)
17. Sinfonia No 9 in g minor – II. Adagio (01:23)
18. Sinfonia No 9 in g minor – III. Moderato (02:31)
19. Sinfonia No 9 in g minor – IV. Adagio (01:38)
20. Sinfonia No 9 in g minor – V. Allegrissimo (01:11)
21. Sinfonia No 9 in g minor – VI. Menuet (00:56)
22. Sinfonia No 10 in a minor – I. Vivace (00:44)
23. Sinfonia No 10 in a minor – II. Adagio (01:27)
24. Sinfonia No 10 in a minor – III. Allegro (02:17)
25. Sinfonia No 10 in a minor – IV. Adagio (01:35)
26. Sinfonia No 10 in a minor – V. Allegrissimo (01:18)
27. Sinfonia No 11 in C major – I. Spiritoso (00:43)
28. Sinfonia No 11 in C major – II. Lento (02:00)
29. Sinfonia No 11 in C major – III. Allegro (01:48)
30. Sinfonia No 11 in C major – IV. Adagio (01:15)
31. Sinfonia No 11 in C major – V. Allegro (01:27)

EAC log CD1
Exact Audio Copy V1.1 from 23. June 2015

EAC extraction logfile from 9. May 2016, 14:41

Corina Marti & Capella Tiberina / Scarlatti – 12 Concerto Grosso [CD1]

Used drive : hp DVD A DH16ACSHR Adapter: 1 ID: 0

Read mode : Secure
Utilize accurate stream : Yes
Defeat audio cache : Yes
Make use of C2 pointers : No

Read offset correction : 6
Overread into Lead-In and Lead-Out : No
Fill up missing offset samples with silence : Yes
Delete leading and trailing silent blocks : No
Null samples used in CRC calculations : Yes
Used interface : Native Win32 interface for Win NT & 2000

Used output format : User Defined Encoder
Selected bitrate : 1024 kBit/s
Quality : High
Add ID3 tag : No
Command line compressor : C:Program Files (x86)Exact Audio CopyFLACFLAC.EXE
Additional command line options : -6 -V -T "ARTIST=%artist%" -T "TITLE=%title%" -T "ALBUM=%albumtitle%" -T "DATE=%year%" -T "TRACKNUMBER=%tracknr%" -T "GENRE=%genre%" -T "COMMENT=%comment%" -T "BAND=%albuminterpret%" -T "ALBUMARTIST=%albuminterpret%" -T "COMPOSER=%composer%" %haslyrics%–tag-from-file=LYRICS="%lyricsfile%"%haslyrics% -T "DISCNUMBER=%cdnumber%" -T "TOTALDISCS=%totalcds%" -T "TOTALTRACKS=%numtracks%" %hascover%–picture="%coverfile%"%hascover% %source% -o %dest%

TOC of the extracted CD

Track | Start | Length | Start sector | End sector
––––––––––––––––––––––––––––-
1 | 0:00.00 | 0:58.27 | 0 | 4376
2 | 0:58.27 | 1:02.49 | 4377 | 9075
3 | 2:01.01 | 2:00.01 | 9076 | 18076
4 | 4:01.02 | 1:26.32 | 18077 | 24558
5 | 5:27.34 | 2:03.59 | 24559 | 33842
6 | 7:31.18 | 0:39.26 | 33843 | 36793
7 | 8:10.44 | 1:37.23 | 36794 | 44091
8 | 9:47.67 | 2:05.60 | 44092 | 53526
9 | 11:53.52 | 1:16.69 | 53527 | 59295
10 | 13:10.46 | 1:52.46 | 59296 | 67741
11 | 15:03.17 | 0:38.61 | 67742 | 70652
12 | 15:42.03 | 1:42.45 | 70653 | 78347
13 | 17:24.48 | 2:05.57 | 78348 | 87779
14 | 19:30.30 | 1:43.07 | 87780 | 95511
15 | 21:13.37 | 1:07.61 | 95512 | 100597
16 | 22:21.23 | 0:52.15 | 100598 | 104512
17 | 23:13.38 | 2:42.04 | 104513 | 116666
18 | 25:55.42 | 2:09.19 | 116667 | 126360
19 | 28:04.61 | 1:11.45 | 126361 | 131730
20 | 29:16.31 | 0:56.18 | 131731 | 135948
21 | 30:12.49 | 1:20.09 | 135949 | 141957
22 | 31:32.58 | 1:46.07 | 141958 | 149914
23 | 33:18.65 | 1:04.37 | 149915 | 154751
24 | 34:23.27 | 1:15.65 | 154752 | 160441
25 | 35:39.17 | 1:50.22 | 160442 | 168713
26 | 37:29.39 | 2:24.45 | 168714 | 179558
27 | 39:54.09 | 2:17.61 | 179559 | 189894
28 | 42:11.70 | 2:20.51 | 189895 | 200445

Range status and errors

Selected range

Filename C:EACCorina Marti & Capella Tiberina – Scarlatti – 12 Concerto Grosso [CD1].wav

Peak level 100.0 %
Extraction speed 2.3 X
Range quality 99.9 %
Test CRC 7C6686DD
Copy CRC 7C6686DD
Copy OK

No errors occurred

AccurateRip summary

Track 1 accurately ripped (confidence 1) [0C860B9B] (AR v2)
Track 2 accurately ripped (confidence 1) [0BB1938A] (AR v2)
Track 3 accurately ripped (confidence 1) [9E9C49B0] (AR v2)
Track 4 accurately ripped (confidence 1) [E3BC792E] (AR v2)
Track 5 accurately ripped (confidence 1) [DC344C03] (AR v2)
Track 6 accurately ripped (confidence 1) [C9676C0C] (AR v2)
Track 7 accurately ripped (confidence 1) [0C374ACA] (AR v2)
Track 8 accurately ripped (confidence 1) [7DE3A9E4] (AR v2)
Track 9 accurately ripped (confidence 1) [8385503B] (AR v2)
Track 10 accurately ripped (confidence 1) [A07813A9] (AR v2)
Track 11 accurately ripped (confidence 1) [F98B1935] (AR v2)
Track 12 accurately ripped (confidence 1) [DCE60F3E] (AR v2)
Track 13 accurately ripped (confidence 1) [6C28650A] (AR v2)
Track 14 accurately ripped (confidence 1) [8B45D3AD] (AR v2)
Track 15 accurately ripped (confidence 1) [7CA76B69] (AR v2)
Track 16 accurately ripped (confidence 1) [44D4AAB5] (AR v2)
Track 17 accurately ripped (confidence 1) [E17C36AC] (AR v2)
Track 18 accurately ripped (confidence 1) [34B6A3C6] (AR v2)
Track 19 accurately ripped (confidence 1) [747AB375] (AR v2)
Track 20 accurately ripped (confidence 1) [B004D580] (AR v2)
Track 21 accurately ripped (confidence 1) [D21BEBD3] (AR v2)
Track 22 accurately ripped (confidence 1) [1D4CD14D] (AR v2)
Track 23 accurately ripped (confidence 1) [1B6DF8CF] (AR v2)
Track 24 accurately ripped (confidence 1) [ADAD0690] (AR v2)
Track 25 accurately ripped (confidence 1) [FF6ADBEF] (AR v2)
Track 26 accurately ripped (confidence 1) [21C2CEE3] (AR v2)
Track 27 accurately ripped (confidence 1) [AE2D7B76] (AR v2)
Track 28 accurately ripped (confidence 1) [9A6979A1] (AR v2)

All tracks accurately ripped

End of status report

–– CUETools DB Plugin V2.1.6

[CTDB TOCID: m9Taa1PpAnJMl9uNmemAefqrSO8-] found
Submit result: m9Taa1PpAnJMl9uNmemAefqrSO8- has been confirmed
Track | CTDB Status
1 | (2/2) Accurately ripped
2 | (2/2) Accurately ripped
3 | (2/2) Accurately ripped
4 | (2/2) Accurately ripped
5 | (2/2) Accurately ripped
6 | (2/2) Accurately ripped
7 | (2/2) Accurately ripped
8 | (2/2) Accurately ripped
9 | (2/2) Accurately ripped
10 | (2/2) Accurately ripped
11 | (2/2) Accurately ripped
12 | (2/2) Accurately ripped
13 | (2/2) Accurately ripped
14 | (2/2) Accurately ripped
15 | (2/2) Accurately ripped
16 | (2/2) Accurately ripped
17 | (2/2) Accurately ripped
18 | (2/2) Accurately ripped
19 | (2/2) Accurately ripped
20 | (2/2) Accurately ripped
21 | (2/2) Accurately ripped
22 | (2/2) Accurately ripped
23 | (2/2) Accurately ripped
24 | (2/2) Accurately ripped
25 | (2/2) Accurately ripped
26 | (2/2) Accurately ripped
27 | (2/2) Accurately ripped
28 | (2/2) Accurately ripped

==== Log checksum 25FCECD1B86D3A1709974D457D4849930C0D9A764C242062D599980E8ADC1B20 ====

DR log CD1
foobar2000 1.2 / Dynamic Range Meter 1.1.1
log date: 2017-02-09 18:32:44

––––––––––––––––––––––––––––––––––––––––
Analyzed: Scarlatti Alessandro 1660-1725 / Scarlatti A. – 12 Concerto Grosso – Corina Marti & Capella Tiberina[CD1]
––––––––––––––––––––––––––––––––––––––––

DR Peak RMS Duration Track
––––––––––––––––––––––––––––––––––––––––
DR11 0.00 dB -13.63 dB 0:58 01-Sinfonia No 2 in D major (1715) – I. Spiritoso
DR12 -0.31 dB -16.11 dB 1:03 02-Sinfonia No 2 in D major (1715) – II. Adagio
DR11 0.00 dB -13.95 dB 2:00 03-Sinfonia No 2 in D major (1715) – III. Allegro
DR11 -2.84 dB -17.24 dB 1:26 04-Sinfonia No 2 in D major (1715) – IV. Adagio
DR12 0.00 dB -14.75 dB 2:04 05-Sinfonia No 2 in D major (1715) – V. Presto
DR11 0.00 dB -16.14 dB 0:39 06-Sinfonia No 3 in d minor (1715) – I. Vivace
DR12 0.00 dB -15.75 dB 1:37 07-Sinfonia No 3 in d minor (1715) – II. Adagio
DR11 -0.52 dB -15.38 dB 2:06 08-Sinfonia No 3 in d minor (1715) – III. Andante
DR10 0.00 dB -16.30 dB 1:17 09-Sinfonia No 3 in d minor (1715) – IV. Adagio
DR11 0.00 dB -14.40 dB 1:53 10-Sinfonia No 3 in d minor (1715) – V. Allegro
DR11 0.00 dB -14.23 dB 0:39 11-Sinfonia No 6 in a minor (1715) – I. Vivace
DR11 -0.09 dB -15.21 dB 1:43 12-Sinfonia No 6 in a minor (1715) – II. Adagio
DR12 0.00 dB -14.64 dB 2:06 13-Sinfonia No 6 in a minor (1715) – III. Allegro
DR10 -0.14 dB -14.79 dB 1:43 14-Sinfonia No 6 in a minor (1715) – IV. Adagio
DR12 0.00 dB -15.16 dB 1:08 15-Sinfonia No 6 in a minor (1715) – V. Allegro
DR12 0.00 dB -16.89 dB 0:52 16-Sinfonia No 7 in g minor (1715) – I. Moderato
DR9 0.00 dB -12.79 dB 2:42 17-Sinfonia No 7 in g minor (1715) – II. Moderato
DR9 0.00 dB -13.28 dB 2:09 18-Sinfonia No 7 in g minor (1715) – III. Grave
DR10 0.00 dB -13.32 dB 1:12 19-Sinfonia No 7 in g minor (1715) – IV. Allegro
DR10 0.00 dB -13.31 dB 0:56 20-Sinfonia No 8 in G major (1715) – I. Allegrissimo
DR10 0.00 dB -13.92 dB 1:20 21-Sinfonia No 8 in G major (1715) – II. Adagio
DR11 0.00 dB -14.53 dB 1:46 22-Sinfonia No 8 in G major (1715) – III. Allegro
DR9 -0.45 dB -15.09 dB 1:04 23-Sinfonia No 8 in G major (1715) – IV. Adagio
DR11 0.00 dB -13.85 dB 1:16 24-Sinfonia No 8 in G major (1715) – V. Vivace
DR11 -0.08 dB -15.63 dB 1:50 25-Sinfonia No 12 in c minor (1715) ‘La geniale’ – I. Adagio e staccato
DR11 0.00 dB -14.73 dB 2:25 26-Sinfonia No 12 in c minor (1715) ‘La geniale’ – II. Andante giusto
DR10 -0.17 dB -15.29 dB 2:18 27-Sinfonia No 12 in c minor (1715) ‘La geniale’ – III. Adagio
DR11 0.00 dB -14.50 dB 2:21 28-Sinfonia No 12 in c minor (1715) ‘La geniale’ – IV. Andante moderato
––––––––––––––––––––––––––––––––––––––––

Number of tracks: 28
Official DR value: DR11

Samplerate: 44100 Hz
Channels: 2
Bits per sample: 16
Bitrate: 750 kbps
Codec: FLAC
================================================================================

EAC log CD2
Exact Audio Copy V1.1 from 23. June 2015

EAC extraction logfile from 9. May 2016, 15:39

Corina Marti & Capella Tiberina / Scarlatti – 12 Concerto Grosso [CD2]

Used drive : hp DVD A DH16ACSHR Adapter: 1 ID: 0

Read mode : Secure
Utilize accurate stream : Yes
Defeat audio cache : Yes
Make use of C2 pointers : No

Read offset correction : 6
Overread into Lead-In and Lead-Out : No
Fill up missing offset samples with silence : Yes
Delete leading and trailing silent blocks : No
Null samples used in CRC calculations : Yes
Used interface : Native Win32 interface for Win NT & 2000

Used output format : User Defined Encoder
Selected bitrate : 1024 kBit/s
Quality : High
Add ID3 tag : No
Command line compressor : C:Program Files (x86)Exact Audio CopyFLACFLAC.EXE
Additional command line options : -6 -V -T "ARTIST=%artist%" -T "TITLE=%title%" -T "ALBUM=%albumtitle%" -T "DATE=%year%" -T "TRACKNUMBER=%tracknr%" -T "GENRE=%genre%" -T "COMMENT=%comment%" -T "BAND=%albuminterpret%" -T "ALBUMARTIST=%albuminterpret%" -T "COMPOSER=%composer%" %haslyrics%–tag-from-file=LYRICS="%lyricsfile%"%haslyrics% -T "DISCNUMBER=%cdnumber%" -T "TOTALDISCS=%totalcds%" -T "TOTALTRACKS=%numtracks%" %hascover%–picture="%coverfile%"%hascover% %source% -o %dest%

TOC of the extracted CD

Track | Start | Length | Start sector | End sector
––––––––––––––––––––––––––––-
1 | 0:00.00 | 0:51.02 | 0 | 3826
2 | 0:51.02 | 0:54.42 | 3827 | 7918
3 | 1:45.44 | 1:50.42 | 7919 | 16210
4 | 3:36.11 | 0:53.45 | 16211 | 20230
5 | 4:29.56 | 1:22.09 | 20231 | 26389
6 | 5:51.65 | 0:51.25 | 26390 | 30239
7 | 6:43.15 | 1:08.14 | 30240 | 35353
8 | 7:51.29 | 1:43.53 | 35354 | 43131
9 | 9:35.07 | 1:35.64 | 43132 | 50320
10 | 11:10.71 | 1:51.20 | 50321 | 58665
11 | 13:02.16 | 1:11.17 | 58666 | 64007
12 | 14:13.33 | 1:37.03 | 64008 | 71285
13 | 15:50.36 | 2:15.05 | 71286 | 81415
14 | 18:05.41 | 1:35.51 | 81416 | 88591
15 | 19:41.17 | 1:32.30 | 88592 | 95521
16 | 21:13.47 | 0:42.49 | 95522 | 98720
17 | 21:56.21 | 1:23.74 | 98721 | 105019
18 | 23:20.20 | 2:31.26 | 105020 | 116370
19 | 25:51.46 | 1:38.28 | 116371 | 123748
20 | 27:29.74 | 1:11.13 | 123749 | 129086
21 | 28:41.12 | 0:56.70 | 129087 | 133356
22 | 29:38.07 | 0:44.00 | 133357 | 136656
23 | 30:22.07 | 1:27.04 | 136657 | 143185
24 | 31:49.11 | 2:17.04 | 143186 | 153464
25 | 34:06.15 | 1:35.15 | 153465 | 160604
26 | 35:41.30 | 1:18.22 | 160605 | 166476
27 | 36:59.52 | 0:43.32 | 166477 | 169733
28 | 37:43.09 | 2:00.74 | 169734 | 178807
29 | 39:44.08 | 1:48.20 | 178808 | 186927
30 | 41:32.28 | 1:15.32 | 186928 | 192584
31 | 42:47.60 | 1:27.64 | 192585 | 199173

Range status and errors

Selected range

Filename C:EACCorina Marti & Capella Tiberina – Scarlatti – 12 Concerto Grosso [CD2].wav

Peak level 100.0 %
Extraction speed 2.2 X
Range quality 99.9 %
Test CRC 5FB54886
Copy CRC 5FB54886
Copy OK

No errors occurred

AccurateRip summary

Track 1 accurately ripped (confidence 1) [8BFD6E36] (AR v2)
Track 2 accurately ripped (confidence 1) [6EBE0B41] (AR v2)
Track 3 accurately ripped (confidence 1) [29498CA3] (AR v2)
Track 4 accurately ripped (confidence 1) [F3EEEF49] (AR v2)
Track 5 accurately ripped (confidence 1) [DD228623] (AR v2)
Track 6 accurately ripped (confidence 1) [843A6BA0] (AR v2)
Track 7 accurately ripped (confidence 1) [326B5EF1] (AR v2)
Track 8 accurately ripped (confidence 1) [9E0097BE] (AR v2)
Track 9 accurately ripped (confidence 1) [9F416DBE] (AR v2)
Track 10 accurately ripped (confidence 1) [EA980559] (AR v2)
Track 11 accurately ripped (confidence 1) [1BC07D81] (AR v2)
Track 12 accurately ripped (confidence 1) [7ECBA432] (AR v2)
Track 13 accurately ripped (confidence 1) [89283179] (AR v2)
Track 14 accurately ripped (confidence 1) [13A4088F] (AR v2)
Track 15 accurately ripped (confidence 1) [C379EA6C] (AR v2)
Track 16 accurately ripped (confidence 1) [83FA35DE] (AR v2)
Track 17 accurately ripped (confidence 1) [37BB8625] (AR v2)
Track 18 accurately ripped (confidence 1) [CDF7BCE1] (AR v2)
Track 19 accurately ripped (confidence 1) [39F98D55] (AR v2)
Track 20 accurately ripped (confidence 1) [82A8D060] (AR v2)
Track 21 accurately ripped (confidence 1) [7DA84344] (AR v2)
Track 22 accurately ripped (confidence 1) [AC1C2C31] (AR v2)
Track 23 accurately ripped (confidence 1) [A2A17E51] (AR v2)
Track 24 accurately ripped (confidence 1) [D9B0F24D] (AR v2)
Track 25 accurately ripped (confidence 1) [8009F68C] (AR v2)
Track 26 accurately ripped (confidence 1) [2449BC90] (AR v2)
Track 27 accurately ripped (confidence 1) [58338CD1] (AR v2)
Track 28 accurately ripped (confidence 1) [AD33E272] (AR v2)
Track 29 accurately ripped (confidence 1) [DABCA09C] (AR v2)
Track 30 accurately ripped (confidence 1) [DAE23C66] (AR v2)
Track 31 accurately ripped (confidence 1) [6CF9E80F] (AR v2)

All tracks accurately ripped

End of status report

–– CUETools DB Plugin V2.1.6

[CTDB TOCID: xYq170gEdKAb74FSutrgVhjLHTs-] found
Submit result: xYq170gEdKAb74FSutrgVhjLHTs- has been confirmed
Track | CTDB Status
1 | (2/2) Accurately ripped
2 | (2/2) Accurately ripped
3 | (2/2) Accurately ripped
4 | (2/2) Accurately ripped
5 | (2/2) Accurately ripped
6 | (2/2) Accurately ripped
7 | (2/2) Accurately ripped
8 | (2/2) Accurately ripped
9 | (2/2) Accurately ripped
10 | (2/2) Accurately ripped
11 | (2/2) Accurately ripped
12 | (2/2) Accurately ripped
13 | (2/2) Accurately ripped
14 | (2/2) Accurately ripped
15 | (2/2) Accurately ripped
16 | (2/2) Accurately ripped
17 | (2/2) Accurately ripped
18 | (2/2) Accurately ripped
19 | (2/2) Accurately ripped
20 | (2/2) Accurately ripped
21 | (2/2) Accurately ripped
22 | (2/2) Accurately ripped
23 | (2/2) Accurately ripped
24 | (2/2) Accurately ripped
25 | (2/2) Accurately ripped
26 | (2/2) Accurately ripped
27 | (2/2) Accurately ripped
28 | (2/2) Accurately ripped
29 | (2/2) Accurately ripped
30 | (2/2) Accurately ripped
31 | (2/2) Accurately ripped

==== Log checksum 7DC42B724022B1248F18BA7F947D31AC08EC23D7E85F8DFE76136434544B7E7C ====

DR log CD2
foobar2000 1.2 / Dynamic Range Meter 1.1.1
log date: 2017-02-09 18:32:59

––––––––––––––––––––––––––––––––––––––––
Analyzed: Scarlatti Alessandro 1660-1725 / Scarlatti A. – 12 Concerto Grosso – Corina Marti & Capella Tiberina[CD2]
––––––––––––––––––––––––––––––––––––––––

DR Peak RMS Duration Track
––––––––––––––––––––––––––––––––––––––––
DR11 -2.73 dB -17.92 dB 0:51 01-Sinfonia No 1 in F major (1715) – I. Allegro
DR11 -3.39 dB -18.88 dB 0:55 02-Sinfonia No 1 in F major (1715) – II. Adagio
DR11 0.00 dB -16.56 dB 1:51 03-Sinfonia No 1 in F major (1715) – III. Allegro
DR10 -5.37 dB -19.44 dB 0:54 04-Sinfonia No 1 in F major (1715) – IV. Adagio
DR12 -5.46 dB -20.92 dB 1:22 05-Sinfonia No 1 in F major (1715) – V. Allegro
DR11 0.00 dB -14.26 dB 0:51 06-Sinfonia No 4 in e minor (1715) – I. Vivace
DR9 -1.09 dB -13.47 dB 1:08 07-Sinfonia No 4 in e minor (1715) – II. Adagio
DR10 0.00 dB -13.01 dB 1:44 08-Sinfonia No 4 in e minor (1715) – III. Allegro
DR11 0.00 dB -13.97 dB 1:36 09-Sinfonia No 4 in e minor (1715) – IV. Adagio
DR11 0.00 dB -13.86 dB 1:51 10-Sinfonia No 4 in e minor (1715) – V. Allegro
DR12 -2.19 dB -18.22 dB 1:11 11-Sinfonia No 5 in d minor (1715) – I. Spiritoso e staccato
DR9 -3.68 dB -17.52 dB 1:37 12-Sinfonia No 5 in d minor (1715) – II. Adagio
DR12 -2.50 dB -18.30 dB 2:15 13-Sinfonia No 5 in d minor (1715) – III. Allegro
DR9 -3.14 dB -17.91 dB 1:36 14-Sinfonia No 5 in d minor (1715) – IV. Adagio
DR13 -1.41 dB -17.68 dB 1:32 15-Sinfonia No 5 in d minor (1715) – V. Allegro assai
DR10 -0.24 dB -14.54 dB 0:43 16-Sinfonia No 9 in g minor (1715) – I. Vivace
DR11 -1.17 dB -17.90 dB 1:24 17-Sinfonia No 9 in g minor (1715) – II. Adagio
DR10 -2.12 dB -16.06 dB 2:31 18-Sinfonia No 9 in g minor (1715) – III. Moderato
DR9 -3.86 dB -17.66 dB 1:38 19-Sinfonia No 9 in g minor (1715) – IV. Adagio
DR11 0.00 dB -14.04 dB 1:11 20-Sinfonia No 9 in g minor (1715) – V. Allegrissimo
DR10 -1.74 dB -16.21 dB 0:57 21-Sinfonia No 9 in g minor (1715) – VI. Menuet
DR12 -0.26 dB -15.72 dB 0:44 22-Sinfonia No 10 in a minor (1715) – I. Vivace
DR9 -1.31 dB -15.11 dB 1:27 23-Sinfonia No 10 in a minor (1715) – II. Adagio
DR11 0.00 dB -14.59 dB 2:17 24-Sinfonia No 10 in a minor (1715) – III. Allegro
DR9 0.00 dB -13.69 dB 1:35 25-Sinfonia No 10 in a minor (1715) – IV. Adagio
DR11 -0.13 dB -14.07 dB 1:18 26-Sinfonia No 10 in a minor (1715) – V. Allegrissimo
DR11 0.00 dB -14.89 dB 0:43 27-Sinfonia No 11 in C major (1715) – I. Spiritoso
DR11 -3.57 dB -18.42 dB 2:01 28-Sinfonia No 11 in C major (1715) – II. Lento
DR11 0.00 dB -14.46 dB 1:48 29-Sinfonia No 11 in C major (1715) – III. Allegro
DR12 -0.82 dB -16.57 dB 1:15 30-Sinfonia No 11 in C major (1715) – IV. Adagio
DR13 -0.10 dB -15.83 dB 1:28 31-Sinfonia No 11 in C major (1715) – V. Allegro
––––––––––––––––––––––––––––––––––––––––

Number of tracks: 31
Official DR value: DR11

Samplerate: 44100 Hz
Channels: 2
Bits per sample: 16
Bitrate: 729 kbps
Codec: FLAC
================================================================================

Capella Tiberina; Corina Marti, Alexandra Nigito - Alessandro Scarlatti: 12 Sinfonie di Concerto grosso (2015) 2CDs

Capella Tiberina; Corina Marti, Alexandra Nigito - Alessandro Scarlatti: 12 Sinfonie di Concerto grosso (2015) 2CDs

All thanks to – RogerT

More Alessandro Scarlatti music in My Blog

Capella Tiberina; Corina Marti, Alexandra Nigito – Alessandro Scarlatti: 12 Sinfonie di Concerto grosso (2015) 2CDs Download, Warez, DDL, Free, Full Album, Torrent, Legal.

Download