Candy Dulfer – Crazy (2011)

Download
Candy Dulfer - Crazy (2011)

Candy Dulfer – Crazy (2011)
EAC Rip | FLAC (Img) + Cue + Log ~ 410 Mb | MP3 CBR320 ~ 157 Mb
Scans Included (JPG, 600 dpi) | RAR 5% Recovery
Crossover Jazz / Smooth Jazz / Contemporary Jazz / Electronic / Eurodance
in-akustik #INAK 9104 CD

If you think of funk and sax, Candy Dulfer is one of the first names that comes to mind. Her breakthrough came in the late 80s and early 90s, initially with her 1989 single Lily Was Here from the soundtrack of the film of the same name, which she recorded with Dave Stewart of the Eurythmics, reaching number 6 in the UK singles charts. Ever since then, this charming Dutch lady has been an ambassador for funk all over the world. And having worked with the greats such as Prince, Van Morrison, Maceo Parker, Dave Stewart, BeyoncĂ©, Pink Floyd, Aretha Franklin, Jimmy Cliff, Tower Of Power, Angie Stone and Alan Parsons, she can quite rightly call herself a star. On the album Crazy, Candy Dulfer once again shows her creativity and ambition as a musician. Candy’s close collaboration with Printz Board (the musical director of the Black Eyed Peas and multiple Grammywinner) has been one of the influences on the album, and they wrote many of the tracks together. Printz was also responsible as producer and singer for most of the songs. Candy’s long-term musical companion Ulco Bed provides partners her superbly on the others. Candy and her crew present a driving yet nuanced kind of funk, with first-class songs and an irresistible groove.

Official Website | Wiki | Discogs | All Music

***************

Candy Dulfer - Crazy (2011)

Candy Dulfer - Crazy (2011)

Track List:

01. Stop All That Noise [0:53]
02. Crazy [4:08]
03. Hey Now [4:00]
04. Flame [4:22]
05. Good Music [4:03]
06. Complic8ted Lives [3:31]
07. Calling Next Door [0:35]
08. Electric Blue [4:14]
09. In Or Out [4:15]
10. I Do [4:04]
11. Rocket Rocket [4:07]
12. No End [5:39]
13. Open Up [0:27]
14. Please Don’t Stop [4:50]
15. Too Close [6:08]

EAC Log
Exact Audio Copy V1.0 beta 3 from 29. August 2011

EAC extraction logfile from 13. June 2015, 12:29

Candy Dulfer / Crazy

Used drive : TSSTcorpBDDVDW SE-506BB Adapter: 0 ID: 0

Read mode : Secure
Utilize accurate stream : Yes
Defeat audio cache : Yes
Make use of C2 pointers : No

Read offset correction : 6
Overread into Lead-In and Lead-Out : No
Fill up missing offset samples with silence : Yes
Delete leading and trailing silent blocks : No
Null samples used in CRC calculations : Yes
Used interface : Native Win32 interface for Win NT & 2000

Used output format : User Defined Encoder
Selected bitrate : 896 kBit/s
Quality : High
Add ID3 tag : No
Command line compressor : C:Program Files (x86)FLACflac.exe
Additional command line options : -V -8 -T "Date=%year%" -T "Genre=%genre%" %source%

TOC of the extracted CD

Track | Start | Length | Start sector | End sector
––––––––––––––––––––––––––––-
1 | 0:00.00 | 0:52.51 | 0 | 3950
2 | 0:52.51 | 4:07.60 | 3951 | 22535
3 | 5:00.36 | 4:00.07 | 22536 | 40542
4 | 9:00.43 | 4:21.60 | 40543 | 60177
5 | 13:22.28 | 4:03.05 | 60178 | 78407
6 | 17:25.33 | 3:30.46 | 78408 | 94203
7 | 20:56.04 | 0:35.06 | 94204 | 96834
8 | 21:31.10 | 4:14.12 | 96835 | 115896
9 | 25:45.22 | 4:14.53 | 115897 | 134999
10 | 30:00.00 | 4:03.71 | 135000 | 153295
11 | 34:03.71 | 4:07.23 | 153296 | 171843
12 | 38:11.19 | 5:38.57 | 171844 | 197250
13 | 43:50.01 | 0:26.42 | 197251 | 199242
14 | 44:16.43 | 4:50.28 | 199243 | 221020
15 | 49:06.71 | 6:08.12 | 221021 | 248632

Range status and errors

Selected range

Filename C:UsersSonyDownloadsCandy Dulfer – Crazy (2011)EACrip FLAC(image+.cue) Candy Dulfer – Crazy (2011)Candy Dulfer – Crazy.wav

Peak level 98.8 %
Extraction speed 1.7 X
Range quality 99.9 %
Copy CRC F37A368E
Copy OK

No errors occurred

AccurateRip summary

Track 1 accurately ripped (confidence 28) [8BB54DA2] (AR v2)
Track 2 accurately ripped (confidence 29) [A3953FFB] (AR v2)
Track 3 accurately ripped (confidence 28) [3D8E52D4] (AR v2)
Track 4 accurately ripped (confidence 28) [3A6D4CA5] (AR v2)
Track 5 accurately ripped (confidence 28) [4809AB19] (AR v2)
Track 6 accurately ripped (confidence 29) [8B88165E] (AR v2)
Track 7 accurately ripped (confidence 28) [355F77D3] (AR v2)
Track 8 accurately ripped (confidence 28) [B7F93925] (AR v2)
Track 9 accurately ripped (confidence 28) [B5C8E2AC] (AR v2)
Track 10 accurately ripped (confidence 28) [5853BE55] (AR v2)
Track 11 accurately ripped (confidence 28) [904A1601] (AR v2)
Track 12 accurately ripped (confidence 29) [F0081C35] (AR v2)
Track 13 accurately ripped (confidence 28) [DB1D8F8D] (AR v2)
Track 14 accurately ripped (confidence 28) [6F02754D] (AR v2)
Track 15 accurately ripped (confidence 28) [58EBFB6D] (AR v2)

All tracks accurately ripped

End of status report

==== Log checksum 251A1B532DF78B6048008AEEA84CD684C9C4D7E2CDF3ECD8B39A02E8D1CD6F11 ====

DR Log
foobar2000 1.2.6 / Dynamic Range Meter 1.1.1
log date: 2017-10-08 21:28:08

––––––––––––––––––––––––––––––––––––––––
Analyzed: Candy Dulfer / Crazy
––––––––––––––––––––––––––––––––––––––––

DR Peak RMS Duration Track
––––––––––––––––––––––––––––––––––––––––
DR8 -1.50 dB -12.13 dB 0:53 01-Stop All That Noise
DR7 -0.20 dB -8.31 dB 4:08 02-Crazy
DR6 -0.20 dB -7.69 dB 4:00 03-Hey Now
DR7 -0.22 dB -8.90 dB 4:22 04-Flame
DR8 -0.20 dB -8.93 dB 4:03 05-Good Music
DR5 -0.30 dB -6.82 dB 3:31 06-Complic8ted Lives
DR10 -0.10 dB -12.77 dB 0:35 07-Calling Next Door
DR6 -0.20 dB -7.20 dB 4:14 08-Electric Blue
DR7 -0.20 dB -8.91 dB 4:15 09-In Or Out
DR6 -0.20 dB -7.17 dB 4:04 10-I Do
DR7 -0.20 dB -8.87 dB 4:07 11-Rocket Rocket
DR7 -0.20 dB -8.77 dB 5:39 12-No End
DR8 -2.57 dB -13.67 dB 0:27 13-Open Up
DR7 -0.20 dB -8.72 dB 4:50 14-Please Don’t Stop
DR8 -0.50 dB -9.96 dB 6:08 15-Too Close
––––––––––––––––––––––––––––––––––––––––

Number of tracks: 15
Official DR value: DR7

Samplerate: 44100 Hz
Channels: 2
Bits per sample: 16
Bitrate: 929 kbps
Codec: FLAC
================================================================================

CUETools Log
[CUETools log; Date: 08.10.2017 21:28:13; Version: 2.1.5]
[CTDB TOCID: h_gzUfJBawmpcTNwdUweQ72qe.Y-] found.
Track | CTDB Status
1 | (77/77) Accurately ripped
2 | (77/77) Accurately ripped
3 | (76/77) Accurately ripped
4 | (77/77) Accurately ripped
5 | (77/77) Accurately ripped
6 | (76/77) Accurately ripped
7 | (76/77) Accurately ripped
8 | (75/77) Accurately ripped
9 | (77/77) Accurately ripped
10 | (77/77) Accurately ripped
11 | (77/77) Accurately ripped
12 | (77/77) Accurately ripped
13 | (77/77) Accurately ripped
14 | (77/77) Accurately ripped
15 | (77/77) Accurately ripped
[AccurateRip ID: 001c0ef8-0143f84e-c20cf30f] found.
Track [ CRC | V2 ] Status
01 [094ab33e|8bb54da2] (07+34/74) Accurately ripped
02 [21ed93aa|a3953ffb] (07+36/75) Accurately ripped
03 [d6766601|3d8e52d4] (07+35/77) Accurately ripped
04 [b5be82a2|3a6d4ca5] (07+35/77) Accurately ripped
05 [c953c1cf|4809ab19] (07+35/77) Accurately ripped
06 [4dbacce6|8b88165e] (07+35/77) Accurately ripped
07 [95d449bf|355f77d3] (07+35/77) Accurately ripped
08 [e152d8f3|b7f93925] (07+34/76) Accurately ripped
09 [c4149449|b5c8e2ac] (07+35/77) Accurately ripped
10 [b16c5f3d|5853be55] (07+35/77) Accurately ripped
11 [f7035282|904a1601] (07+35/76) Accurately ripped
12 [c549ce37|f0081c35] (07+35/77) Accurately ripped
13 [457a5e40|db1d8f8d] (07+35/77) Accurately ripped
14 [2e0dd662|6f02754d] (07+34/75) Accurately ripped
15 [1b809317|58ebfb6d] (07+34/76) Accurately ripped
Offsetted by 6:
01 [da9744a3] (02/74) Accurately ripped
02 [7afccb8c] (02/75) Accurately ripped
03 [dc35099b] (02/77) Accurately ripped
04 [7105567a] (02/77) Accurately ripped
05 [14b0b493] (02/77) Accurately ripped
06 [25f7c092] (02/77) Accurately ripped
07 [7eac9155] (02/77) Accurately ripped
08 [153cde45] (02/76) Accurately ripped
09 [8159c51f] (02/77) Accurately ripped
10 [ec940d5f] (02/77) Accurately ripped
11 [c3fa6418] (02/76) Accurately ripped
12 [216e844d] (02/77) Accurately ripped
13 [0cced6e5] (02/77) Accurately ripped
14 [100c8b99] (02/75) Accurately ripped
15 [bc77441b] (02/76) Accurately ripped
Offsetted by -48:
01 [02693c3a] (00/74) No match (V2 was not tested)
02 [09fe8ab3] (00/75) No match (V2 was not tested)
03 [a8814931] (00/77) No match (V2 was not tested)
04 [db87e3e2] (00/77) No match (V2 was not tested)
05 [6e6c2baf] (00/77) No match (V2 was not tested)
06 [8bd32f86] (00/77) No match (V2 was not tested)
07 [4f120d0f] (00/77) No match (V2 was not tested)
08 [4202ae63] (00/76) No match (V2 was not tested)
09 [327603c5] (00/77) No match (V2 was not tested)
10 [dd5af249] (00/77) No match (V2 was not tested)
11 [8f4ac5d2] (00/76) No match (V2 was not tested)
12 [e4241d87] (00/77) No match (V2 was not tested)
13 [a52bec8b] (00/77) No match (V2 was not tested)
14 [19901f77] (00/75) No match (V2 was not tested)
15 [13cb0af7] (00/76) No match (V2 was not tested)
Offsetted by 12:
01 [7d2c9377] (00/74) No match (V2 was not tested)
02 [ca04f97e] (00/75) No match (V2 was not tested)
03 [e1f3ad35] (02/77) Accurately ripped
04 [2c4c2a52] (02/77) Accurately ripped
05 [600da757] (02/77) Accurately ripped
06 [fe34b43e] (02/77) Accurately ripped
07 [6784d8eb] (02/77) Accurately ripped
08 [4926e397] (02/76) Accurately ripped
09 [9da8f5f2] (02/77) Accurately ripped
10 [27e9bb84] (02/77) Accurately ripped
11 [90f175ae] (02/76) Accurately ripped
12 [7d933a63] (02/77) Accurately ripped
13 [7260708f] (02/77) Accurately ripped
14 [f1dc406b] (02/75) Accurately ripped
15 [5d6df51f] (02/76) Accurately ripped

Track Peak [ CRC32 ] [W/O NULL] [ LOG ]
– 98,8 [F37A368E] [6678D46A] CRC32
01 84,1 [AF0E9C12] [7838DA4E]
02 97,7 [826EC995] [889423FC]
03 97,7 [E0853E41] [61F47A61]
04 97,5 [B9C17981] [3B65B170]
05 97,7 [ACA14D98] [5019EC35]
06 96,6 [7E6B2DD9] [09CD8DCA]
07 98,8 [1709555F] [3CCBD757]
08 97,7 [99E189CE] [AFDA8D0B]
09 97,7 [2C87E168] [7C3EE078]
10 97,7 [4FC07221] [6A1960AF]
11 97,7 [316E994E] [1E3C5E01]
12 97,7 [BAC13140] [3148C8DC]
13 74,3 [B7B8326F] [7D309602]
14 97,7 [0F240B81] [3AA9F766]
15 94,4 [69E6FC4D] [DFEDD86E]

Candy Dulfer - Crazy (2011)

All thanks go to RDx

>>> Candy Dulfer in my Blog <<<

Download from icerbox.com:

Candy Dulfer – Crazy (2011) Download, Warez, DDL, Free, Full Album, Torrent, Legal.

Download