Cameron Mizell – Lifeisloud (2007)

Download
Cameron Mizell - Lifeisloud (2007)

Cameron Mizell – Lifeisloud (2007)
EAC Rip | FLAC with CUE and log | scans | 479 mb
MP3 CBR 320kbps | RAR | 174 mb
Genre: jazz

Lifeisloud is a 2007 CD by American guitarist Cameron Mizell. This was self-produced and released by Mizell.

Cameron Mizell - Lifeisloud (2007)

01. Fearless
02. Cold Sweat
03. Soulfunksticat
04. Chester Bustamante
05. Let The Music Take Your Mind
06. Spinning Wheel
07. Get Out
08. Three If By Outer Space
09. Los Bandidos
10. Pungee
11. Thursdays
12. Walking Home
13. The Whipper

Cameron Mizell-guitar
Brad Whiteley-keyboards
Mike Fortune-drums

Produced by Cameron Mizell
Engineered, mixed & co-produced by Rob Fillmore
Mastered by Kevin Reeves

EAC Log
EAC extraction logfile from 25. June 2017, 16:51 for CD
Cameron Mizell / Lifeisloud

Used drive : TSSTcorpDVD+-RW TS-H653B Adapter: 2 ID: 0
Read mode : Secure with NO C2, accurate stream, disable cache
Read offset correction : 6
Overread into Lead-In and Lead-Out : No

Used output format : Internal WAV Routines
44.100 Hz; 16 Bit; Stereo

Other options :
Fill up missing offset samples with silence : Yes
Delete leading and trailing silent blocks : No
Native Win32 interface for Win NT & 2000

Track 1
Filename C:Documents and SettingsDesktopFLAC’s6Cameron Mizell – Lifeisloud (2007) [FLAC]1 – Fearless.wav

Pre-gap length 0:00:02.00

Peak level 98.8 %
Track quality 100.0 %
Test CRC ECFCF633
Copy CRC ECFCF633
Copy OK

Track 2
Filename C:Documents and SettingsDesktopFLAC’s6Cameron Mizell – Lifeisloud (2007) [FLAC]2 – Cold Sweat.wav

Peak level 98.3 %
Track quality 100.0 %
Test CRC 80BA328B
Copy CRC 80BA328B
Copy OK

Track 3
Filename C:Documents and SettingsDesktopFLAC’s6Cameron Mizell – Lifeisloud (2007) [FLAC]3 – Soulfunksticat.wav

Peak level 98.8 %
Track quality 99.9 %
Test CRC B4341200
Copy CRC B4341200
Copy OK

Track 4
Filename C:Documents and SettingsDesktopFLAC’s6Cameron Mizell – Lifeisloud (2007) [FLAC]4 – Chester Bustamante.wav

Peak level 98.8 %
Track quality 99.9 %
Test CRC 25591766
Copy CRC 25591766
Copy OK

Track 5
Filename C:Documents and SettingsDesktopFLAC’s6Cameron Mizell – Lifeisloud (2007) [FLAC]5 – Let The Music Take Your Mind.wav

Peak level 98.8 %
Track quality 100.0 %
Test CRC 0BF56F8D
Copy CRC 0BF56F8D
Copy OK

Track 6
Filename C:Documents and SettingsDesktopFLAC’s6Cameron Mizell – Lifeisloud (2007) [FLAC]6 – Spinning Wheel.wav

Peak level 98.8 %
Track quality 100.0 %
Test CRC 3083555E
Copy CRC 3083555E
Copy OK

Track 7
Filename C:Documents and SettingsDesktopFLAC’s6Cameron Mizell – Lifeisloud (2007) [FLAC]7 – Get Out.wav

Peak level 98.8 %
Track quality 100.0 %
Test CRC 6510D052
Copy CRC 6510D052
Copy OK

Track 8
Filename C:Documents and SettingsDesktopFLAC’s6Cameron Mizell – Lifeisloud (2007) [FLAC]8 – Three If By Outer Space.wav

Peak level 90.0 %
Track quality 100.0 %
Test CRC 15CAAD89
Copy CRC 15CAAD89
Copy OK

Track 9
Filename C:Documents and SettingsDesktopFLAC’s6Cameron Mizell – Lifeisloud (2007) [FLAC]9 – Los Bandidos.wav

Peak level 98.8 %
Track quality 100.0 %
Test CRC 1013065C
Copy CRC 1013065C
Copy OK

Track 10
Filename C:Documents and SettingsDesktopFLAC’s6Cameron Mizell – Lifeisloud (2007) [FLAC]10 – Pungee.wav

Peak level 97.8 %
Track quality 100.0 %
Test CRC 58548DFA
Copy CRC 58548DFA
Copy OK

Track 11
Filename C:Documents and SettingsDesktopFLAC’s6Cameron Mizell – Lifeisloud (2007) [FLAC]11 – Thursdays.wav

Peak level 98.8 %
Track quality 99.9 %
Test CRC 371156A9
Copy CRC 371156A9
Copy OK

Track 12
Filename C:Documents and SettingsDesktopFLAC’s6Cameron Mizell – Lifeisloud (2007) [FLAC]12 – Walking Home.wav

Peak level 98.8 %
Track quality 100.0 %
Test CRC 3D049CFB
Copy CRC 3D049CFB
Copy OK

Track 13
Filename C:Documents and SettingsDesktopFLAC’s6Cameron Mizell – Lifeisloud (2007) [FLAC]13 – The Whipper.wav

Peak level 98.8 %
Track quality 99.9 %
Test CRC B32B4783
Copy CRC B32B4783
Copy OK

No errors occured

End of status report

Cameron Mizell - Lifeisloud (2007)

Cameron Mizell – Lifeisloud (2007) Download, Warez, DDL, Free, Full Album, Torrent, Legal.

Download