Cálix – 2 Studio Albums (2000-2002) | ViralVideoPk

Daily Dose of Free Downloads

Cálix – 2 Studio Albums (2000-2002)

Download

Cálix - 2 Studio Albums (2000-2002)

Cálix – 2 Studio Albums (2000-2002)
EAC Rip | FLAC (image+.cue+log) – 720 MB | MP3 CBR 320 kbps (LAME 3.93) – 244 MB | Covers – 76 MB
Genre: Progressive Rock | RAR 3% Rec. | Label: Self-released

Calix is a Brazilian group that plays some very interesting prog with a variety of influences, although their music is mostly progressive folk-rock oriented. Musically the band uses at least a dozen different instruments including the flute, harmonica, violin, piano and some traditional Brazilian folk instruments. The album "Canções de Beurin", released in 2000. This is definitely some well-arranged Folk/Symphonic Rock with rich, lush arrangements, centered around the beautiful flute work of Renato Savassi, surrounded by a great group of musicians, who create a majestic and energetic sound. The tracks are full of smooth, professional interplays between flutes and keyboards, some incredible folky melodies and plenty of sensitive vocal lines, mostly sung in Portuguese. However Calix were clever enough to throw in a couple of groovy rockers with English lyrics and non-accented vocals, closer to US and European bands with heavier guitar parts and powerful organ next to the endless flute interventions of Savassi.

Progarchives

Cálix - 2 Studio Albums (2000-2002)

Cálix – Cancoes de Beurin (2000)
EAC Rip | FLAC (image+.cue+log) – 366 MB | MP3 CBR 320 kbps (LAME 3.93) – 124 MB | Covers – 29 MB
Genre: Progressive Rock | RAR 3% Rec. | Label: Self-released (CLX-01/00)

Tracklist:
01. Dança com Devas
02. Além do Vento
03. No More Whispers
04. Kian
05. Canções de Beurin
06. O Sonho
07. Novidades
08. Pra Hoje Um Sol
09. Águas
10. Não Se Lembram do que São
11. Lanças
12. O Fortuna (Carmina Burana) (parte I)
13. O Fortuna (parte II)

Total time: 52:54

EAC log
Exact Audio Copy V1.0 beta 2 from 29. April 2011

Отчёт EAC об извлечении, выполненном 18. марта 2013, 20:31

Calix / Cancoes de Beurin

Дисковод: ATAPI iHAP122 W Adapter: 3 ID: 1

Режим чтения : Достоверность
Использование точного потока : Да
Отключение кэша аудио : Да
Использование указателей C2 : Нет

Коррекция смещения при чтении : 6
Способность читать области Lead-in и Lead-out : Нет
Заполнение пропущенных сэмплов тишиной : Да
Удаление блоков с тишиной в начале и конце : Нет
При вычислениях CRC использовались нулевые сэмплы : Нет
Интерфейс : Встроенный Win32-интерфейс для Win NT/2000

Выходной формат : Внутренние WAV-операции
Формат сэмплов : 44.100 Гц; 16 бит; стерео

TOC извлечённого CD

Трек | Старт | Длительность | Начальный сектор | Конечный сектор
––––––––––––––––––––––––––––––––––-
1 | 0:00.00 | 6:28.33 | 0 | 29132
2 | 6:28.33 | 3:50.12 | 29133 | 46394
3 | 10:18.45 | 3:37.00 | 46395 | 62669
4 | 13:55.45 | 4:32.02 | 62670 | 83071
5 | 18:27.47 | 6:16.20 | 83072 | 111291
6 | 24:43.67 | 4:09.08 | 111292 | 129974
7 | 28:53.00 | 4:55.72 | 129975 | 152171
8 | 33:48.72 | 3:10.23 | 152172 | 166444
9 | 36:59.20 | 5:13.22 | 166445 | 189941
10 | 42:12.42 | 3:32.57 | 189942 | 205898
11 | 45:45.24 | 2:37.36 | 205899 | 217709
12 | 48:22.60 | 3:59.29 | 217710 | 235663
13 | 52:22.14 | 0:31.33 | 235664 | 238021

Характеристики диапазона извлечения и сообщения об ошибках

Выбранный диапазон

Имя файла D:obrazCalix – Cancoes de BeurinCalix – Cancoes de Beurin.wav

Пиковый уровень 98.8 %
Скорость извлечения 3.0 X
Качество диапазона 99.9 %
CRC теста 9A2AD5B1
CRC копии 9A2AD5B1
Копирование… OK

Ошибок не произошло

AccurateRip: сводка

Трек 1 : извлечено точно (доверие 2) [8006B8C8] (AR v1)
Трек 2 : извлечено точно (доверие 2) [4B64F592] (AR v1)
Трек 3 : извлечено точно (доверие 2) [97FCA943] (AR v1)
Трек 4 : извлечено точно (доверие 2) [237A506D] (AR v1)
Трек 5 : извлечено точно (доверие 2) [7D98868D] (AR v1)
Трек 6 : извлечено точно (доверие 2) [DAD903F2] (AR v1)
Трек 7 : извлечено точно (доверие 2) [68C77127] (AR v1)
Трек 8 : извлечено точно (доверие 2) [821FAC76] (AR v1)
Трек 9 : извлечено точно (доверие 1) [FF3E4E80] (AR v1)
Трек 10 : извлечено точно (доверие 1) [3EBB11DF] (AR v1)
Трек 11 : извлечено точно (доверие 1) [FC262D47] (AR v1)
Трек 12 : извлечено точно (доверие 1) [E7A60B58] (AR v1)
Трек 13 : извлечено точно (доверие 1) [4660907F] (AR v1)

Все треки извлечены точно

Конец отчёта

==== Контрольная сумма отчёта B538D9D4497147FFC2538388504E9EF1997D7DF17CD71BA0FE6599E9F8E45671 ====

CUETools log
[CUETools log; Date: 27.12.2016 22:22:40; Version: 2.1.4]
[CTDB TOCID: WxknymbBLRJWHalIqyO4Ix.atf8-] found.
Track | CTDB Status
1 | (2/2) Accurately ripped
2 | (2/2) Accurately ripped
3 | (2/2) Accurately ripped
4 | (2/2) Accurately ripped
5 | (2/2) Accurately ripped
6 | (2/2) Accurately ripped
7 | (2/2) Accurately ripped
8 | (2/2) Accurately ripped
9 | (2/2) Accurately ripped
10 | (2/2) Accurately ripped
11 | (2/2) Accurately ripped
12 | (2/2) Accurately ripped
13 | (2/2) Accurately ripped
[AccurateRip ID: 001c8267-0117ae83-9e0c650d] found.
Track [ CRC | V2 ] Status
01 [8006b8c8|06202e3e] (2+0/2) Accurately ripped
02 [4b64f592|acb476e1] (2+0/2) Accurately ripped
03 [97fca943|dc104907] (2+0/2) Accurately ripped
04 [237a506d|518a5c34] (2+0/2) Accurately ripped
05 [7d98868d|0e9e4d60] (2+0/2) Accurately ripped
06 [dad903f2|29048bef] (2+0/2) Accurately ripped
07 [68c77127|a6618093] (2+0/2) Accurately ripped
08 [821fac76|7a37edb4] (2+0/2) Accurately ripped
09 [ff3e4e80|b4df1150] (1+1/3) Accurately ripped
10 [3ebb11df|fe702c17] (1+1/3) Accurately ripped
11 [fc262d47|8a80f892] (1+1/3) Accurately ripped
12 [e7a60b58|75dd2e8f] (1+1/3) Accurately ripped
13 [4660907f|36e3c01f] (1+1/3) Accurately ripped

Track Peak [ CRC32 ] [W/O NULL] [ LOG ]
– 98,8 [664BC762] [9A2AD5B1] W/O NULL
01 96,6 [826CE222] [7091B21F]
02 96,6 [E37389F5] [EE74CA8A]
03 96,6 [D5774772] [E0FA147F]
04 96,6 [AA3A6293] [4AED2274]
05 86,1 [D7382421] [AE8DCB9C]
06 86,1 [9504C5DF] [B142084A]
07 96,6 [1260610D] [5A6E43BB]
08 86,1 [3F52EBFF] [DF3824D4]
09 96,6 [1A6135B1] [891B352B]
10 98,8 [0C5A6403] [B96894B5]
11 96,6 [72E68C3D] [7D6268CC]
12 96,6 [1D07CE69] [5A09CC3A]
13 67,6 [9955AB4A] [323F24FC]

Cálix - 2 Studio Albums (2000-2002)

Cálix – A Roda (2002)
EAC Rip | FLAC (image+.cue+log) – 354 MB | MP3 CBR 320 kbps (LAME 3.93) – 120 MB | Covers – 47 MB
Genre: Progressive Rock | RAR 3% Rec. | Label: Self-released (CLX002)

Tracklist:
01. Deserto
02. Prá Não Mais Voltar
03. Depois Da Guerra
04. Homens-Pedra
05. Sey Dom
06. Looking Back
07. Lenda Do Mar
08. A Roda
09. Fora Do Mundo
10. Em Pedaços
11. Dois Rios
12. Acordei Devagar

Total time: 50:54

EAC log
Exact Audio Copy V1.0 beta 2 from 29. April 2011

Отчёт EAC об извлечении, выполненном 5. сентября 2011, 22:27

Calix / A Roda

Дисковод: ATAPI iHAP122 W Adapter: 3 ID: 1

Режим чтения : Достоверность
Использование точного потока : Да
Отключение кэша аудио : Да
Использование указателей C2 : Нет

Коррекция смещения при чтении : 6
Способность читать области Lead-in и Lead-out : Нет
Заполнение пропущенных сэмплов тишиной : Да
Удаление блоков с тишиной в начале и конце : Нет
При вычислениях CRC использовались нулевые сэмплы : Нет
Интерфейс : Встроенный Win32-интерфейс для Win NT/2000

Выходной формат : Внутренние WAV-операции
Формат сэмплов : 44.100 Гц; 16 бит; стерео

TOC извлечённого CD

Трек | Старт | Длительность | Начальный сектор | Конечный сектор
––––––––––––––––––––––––––––––––––-
1 | 0:00.00 | 4:40.41 | 0 | 21040
2 | 4:40.41 | 3:14.50 | 21041 | 35640
3 | 7:55.16 | 3:46.31 | 35641 | 52621
4 | 11:41.47 | 3:42.34 | 52622 | 69305
5 | 15:24.06 | 4:12.72 | 69306 | 88277
6 | 19:37.03 | 4:44.11 | 88278 | 109588
7 | 24:21.14 | 6:16.61 | 109589 | 137849
8 | 30:38.00 | 4:12.24 | 137850 | 156773
9 | 34:50.24 | 3:17.29 | 156774 | 171577
10 | 38:07.53 | 3:42.59 | 171578 | 188286
11 | 41:50.37 | 2:44.71 | 188287 | 200657
12 | 44:35.33 | 2:25.24 | 200658 | 211556
13 | 47:00.57 | 3:52.60 | 211557 | 229016

Характеристики диапазона извлечения и сообщения об ошибках

Выбранный диапазон

Имя файла D:obrazCalix – A RodaCalix – A Roda.wav

Пиковый уровень 100.0 %
Скорость извлечения 3.0 X
Качество диапазона 100.0 %
CRC теста 87D75736
CRC копии 87D75736
Копирование… OK

Ошибок не произошло

AccurateRip: сводка

Трек 1 отсутствует в базе данных
Трек 2 отсутствует в базе данных
Трек 3 отсутствует в базе данных
Трек 4 отсутствует в базе данных
Трек 5 отсутствует в базе данных
Трек 6 отсутствует в базе данных
Трек 7 отсутствует в базе данных
Трек 8 отсутствует в базе данных
Трек 9 отсутствует в базе данных
Трек 10 отсутствует в базе данных
Трек 11 отсутствует в базе данных
Трек 12 отсутствует в базе данных
Трек 13 отсутствует в базе данных

Ни одного трека нет в базе AccurateRip

Конец отчёта

==== Контрольная сумма отчёта 422BD8E0016E937D8E872EC83ACE3DF75D09787DA3E15F6F21BF11A5FE65EA22 ====

CUETools log
[CUETools log; Date: 27.12.2016 22:22:03; Version: 2.1.4]
[CTDB TOCID: iZhkh1Idemg9nDpSS_qjt6Sh5U8-] found.
Track | CTDB Status
1 | (1/1) Accurately ripped
2 | (1/1) Accurately ripped
3 | (1/1) Accurately ripped
4 | (1/1) Accurately ripped
5 | (1/1) Accurately ripped
6 | (1/1) Accurately ripped
7 | (1/1) Accurately ripped
8 | (1/1) Accurately ripped
9 | (1/1) Accurately ripped
10 | (1/1) Accurately ripped
11 | (1/1) Accurately ripped
12 | (1/1) Accurately ripped
13 | (1/1) Accurately ripped
[AccurateRip ID: 00198406-00fe54f5-b80bed0d] disk not present in database.

Track Peak [ CRC32 ] [W/O NULL] [ LOG ]
– 100,0 [EBB4E479] [87D75736] W/O NULL
01 99,3 [DA18F15A] [2DCBF87B]
02 99,3 [C7119CE4] [625D2AE2]
03 99,4 [9D93AED0] [02E3E96E]
04 99,3 [0DCFA1A0] [5950F047]
05 99,3 [6428F9CD] [078FFB87]
06 99,3 [35E579C6] [FC45F3E1]
07 100,0 [FD8AEAE9] [D000C995]
08 99,2 [3655C574] [78467C5E]
09 99,2 [68DB2B3A] [064AA0A0]
10 99,2 [602A6521] [BBEA135A]
11 99,9 [1CB571C2] [AE832F92]
12 99,2 [65B92D46] [4944E850]
13 99,2 [2EF475F8] [9721FD2D]

Thanks to novox

Welcome to My Blog!

Cálix – 2 Studio Albums (2000-2002) Download, Warez, DDL, Free, Full Album, Torrent, Legal.

Download


  • Recent Posts

  • Recent Tags